Город воров / The Town (Бен Аффлек / Ben Affleck) [2010, США, триллер, драма, криминал, BDRip-AVC] (Extended cut) DVO (Кубик в кубе) + 2 x AVO (Ю. Сербин, В. Горчаков) + Original Eng + Subs (rus, eng)

 
Автор Сообщение

TorrentFilm ®

Пол:

Стаж: 2 года

Сообщений: 7741



Награды: Нет

Торрент-статистика

Создавать темы 21-Дек-2014 02:00

[Цитировать]

-Город воров / The Town Расширенная версия / Extended cut Страна: США
Жанр: триллер, криминал, драма
Год выпуска: 2010
Продолжительность: 02:30:34-Перевод: Профессиональный (двухголосый закадровый) |Кубик в кубе (два варианта)|
Перевод: авторский (одноголосый закадровый) |Юрий Сербин|
Перевод: авторский (одноголосый закадровый) |Василий Горчаков|-Cубтитры: русские, английские
Оригинальная аудиодорожка: английский-Режиссер: Бен Аффлек / Ben Affleck-В ролях-Бен Аффлек, Ребекка Холл, Джон Хэмм, Джереми Реннер, Блейк Лайвли, Оуэн Бурк, Титус Уэлливер, Пит Постлетуэйт, Крис Купер-Описание-Дуг МакРэй - один из них, но не стоит «чесать всех под одну гребенку». В отличие от большинства у Дуга был шанс на успех, шанс на то, чтобы не идти по криминальному пути своего отца. Однако вместо этого он стал фактическим лидером группы безжалостных грабителей банков, которые гордятся тем, что берут все, что хотят, и выходят сухими из воды. Единственная семья Дуга - его партнеры по преступному ремеслу, особенно Джем, который, несмотря на всю свою непредсказуемость и дикий нрав, ближе всего к тому, что Дуг понимает под словом «брат». Однако все изменилось после одного дела, в ходе которого Джем ненадолго захватил заложницу - банковского менеджера Клэр Киси. Когда грабители узнают, что девушка живет в самом Чарльстоне, Джем начинает нервничать и решает проверить, как много она успела заметить. Зная, на что способен Джем, Дуг берет это дело на себя. Он разыскивает Клэр, и та даже не представляет, что в их «случайной» встрече нет ничего случайного и что этот очаровательный незнакомец - один из тех людей, которые держали ее жизнь в своих руках всего несколько дней назад.-Качество видео: BDRip
Исходное видео: Blu-ray Remux-Контейнер: MKV-Видео: AVC, 1152x480 (2,40:1), ~4000 kbps, 23.976 fps,
Аудио: AC-3, 448 kbps, Dolby Digital, 3/2 (L,C,R,l,r) + LFE ch, 48 KHz |Кубик в кубе|
Аудио: AC-3, 448 kbps, Dolby Digital, 3/2 (L,C,R,l,r) + LFE ch, 48 KHz |Оригинал|
Формат субтитров: softsub (SRT)-Размер: 5,16 GB-Отдельно:Аудио: AC-3, 448 kbps, Dolby Digital, 3/2 (L,C,R,l,r) + LFE ch, 48 KHz |Ю. Сербин|
Аудио: AC-3, 448 kbps, Dolby Digital, 3/2 (L,C,R,l,r) + LFE ch, 48 KHz |В. Горчаков|
Аудио: AC-3, 448 kbps, Dolby Digital, 3/2 (L,C,R,l,r) + LFE ch, 48 KHz |Кубик в кубе* 2|-
-
-

MediaInfox264

VIDEO ENCODING
------------------------------
Encoding video to: F:\Temp\0370.264
x264 Q17.9 1152x480 23.976fps (216602 frames)
avs4x264.exe: -L x264_64.exe --crf 17.9 --preset veryslow --profile high --level 4.1 --ref 14 --aq-mode 2 --aq-strength 0.9 --deblock -3:-3 --merange 48 --bframes 16 --direct spatial --qcomp 0.65 --vbv-maxrate 50000 --vbv-bufsize 62500 --subme 11 --no-mbtree --keyint 240 --slices 4 --colorprim bt709 --transfer bt709 --colormatrix bt709 --zones 207600,216602,q=30 --sar 1:1 --output "F:\Temp\0370.264" "F:\Temp\0370.avs"
raw [info]: 1152x480p 1:1 @ 24000/1001 fps (cfr)
x264 [info]: using SAR=1/1
x264 [info]: using cpu capabilities: MMX2 SSE2Fast LZCNT
x264 [info]: profile High, level 4.1
x264 [info]: frame I:1563 Avg QP:16.99 size: 85572
x264 [info]: frame P:44036 Avg QP:18.55 size: 40612
x264 [info]: frame B:171003 Avg QP:20.76 size: 15217
x264 [info]: consecutive B-frames: 1.6% 2.0% 4.9% 23.8% 16.6% 28.2% 9.1% 8.9% 1.2% 0.5% 1.2% 0.9% 0.1% 0.1% 0.1% 0.3% 0.5%
x264 [info]: mb I I16..4: 5.4% 79.5% 15.0%
x264 [info]: mb P I16..4: 0.4% 17.7% 1.1% P16..4: 24.9% 32.5% 15.4% 2.3% 0.2% skip: 5.4%
x264 [info]: mb B I16..4: 0.0% 1.7% 0.1% B16..8: 36.3% 21.8% 5.7% direct: 6.5% skip:28.0% L0:41.6% L1:45.9% BI:12.5%
x264 [info]: 8x8 transform intra:90.9% inter:57.3%
x264 [info]: coded y,uvDC,uvAC intra: 95.6% 89.1% 72.2% inter: 36.1% 23.8% 4.8%
x264 [info]: i16 v,h,dc,p: 28% 22% 15% 35%
x264 [info]: i8 v,h,dc,ddl,ddr,vr,hd,vl,hu: 8% 8% 12% 10% 13% 12% 12% 11% 14%
x264 [info]: i4 v,h,dc,ddl,ddr,vr,hd,vl,hu: 8% 10% 5% 9% 16% 14% 14% 11% 14%
x264 [info]: i8c dc,h,v,p: 48% 21% 15% 16%
x264 [info]: Weighted P-Frames: Y:3.4% UV:1.3%
x264 [info]: ref P L0: 43.4% 9.6% 17.3% 6.6% 5.5% 3.9% 3.6% 1.9% 1.8% 1.5% 1.4% 1.2% 1.2% 1.1% 0.1% 0.0%
x264 [info]: ref B L0: 77.0% 10.0% 4.4% 2.3% 1.6% 1.3% 1.0% 0.6% 0.5% 0.5% 0.4% 0.3% 0.1%
x264 [info]: ref B L1: 93.6% 6.4%
x264 [info]: kb/s:4006.43
Формат : Matroska
Версия формата : Version 4 / Version 2
Размер файла : 5,16 Гбайт
Продолжительность : 2 ч. 30 м.
Общий поток : 4906 Кбит/сек
Название фильма : Город воров / The Town_2010 (Torrents.Ru)
Дата кодирования : UTC 2014-11-29 22:21:14
Программа кодирования : mkvmerge v6.1.0 ('Old Devil') built on Mar 4 2013 09:10:42
Библиотека кодирования : libebml v1.3.0 + libmatroska v1.4.0
Видео
Идентификатор : 1
Формат : AVC
Формат/Информация : Advanced Video Codec
Профиль формата : High@L4.1
Параметр CABAC формата : Да
Параметр ReFrames формата : 14 кадров
Идентификатор кодека : V_MPEG4/ISO/AVC
Продолжительность : 2 ч. 30 м.
Битрейт : 3912 Кбит/сек
Ширина : 1152 пикселя
Высота : 480 пикселей
Соотношение сторон : 2,40:1
Частота кадров : 23,976 кадра/сек
Цветовое пространство : YUV
Субдискретизация насыщенности : 4:2:0
Битовая глубина : 8 бит
Тип развёртки : Прогрессивная
Бит/(Пиксели*Кадры) : 0.295
Размер потока : 4,11 Гбайт (80%)
Заголовок : The.Town_2010_BDRip_cw
Библиотека кодирования : x264 core 142 r2479 dd79a61
Настройки программы : cabac=1 / ref=14 / deblock=1:-3:-3 / analyse=0x3:0x133 / me=umh / subme=11 / psy=1 / psy_rd=1.00:0.00 / mixed_ref=1 / me_range=48 / chroma_me=1 / trellis=2 / 8x8dct=1 / cqm=0 / deadzone=21,11 / fast_pskip=1 / chroma_qp_offset=-2 / threads=4 / lookahead_threads=1 / sliced_threads=0 / slices=4 / nr=0 / decimate=1 / interlaced=0 / bluray_compat=0 / constrained_intra=0 / bframes=16 / b_pyramid=2 / b_adapt=2 / b_bias=0 / direct=1 / weightb=1 / open_gop=0 / weightp=2 / keyint=240 / keyint_min=23 / scenecut=40 / intra_refresh=0 / rc_lookahead=60 / rc=crf / mbtree=0 / crf=17.9 / qcomp=0.65 / qpmin=0 / qpmax=69 / qpstep=4 / vbv_maxrate=50000 / vbv_bufsize=62500 / crf_max=0.0 / nal_hrd=none / filler=0 / ip_ratio=1.40 / pb_ratio=1.30 / aq=2:0.90 / zones=207600,216602,q=30
Язык : English
Default : Да
Forced : Нет
Основные цвета : BT.709-5, BT.1361, IEC 61966-2-4, SMPTE RP177
Характеристики трансфера : BT.709-5, BT.1361
Коэффициенты матрицы : BT.709-5, BT.1361, IEC 61966-2-4 709, SMPTE RP177
Аудио #1
Идентификатор : 2
Формат : AC-3
Формат/Информация : Audio Coding 3
Расширение режима : CM (complete main)
Параметр Endianness формата : Big
Идентификатор кодека : A_AC3
Продолжительность : 2 ч. 30 м.
Вид битрейта : Постоянный
Битрейт : 448 Кбит/сек
Каналы : 6 каналов
Расположение каналов : Front: L C R, Side: L R, LFE
Частота : 48,0 КГц
Битовая глубина : 16 бит
Метод сжатия : С потерями
Размер потока : 482 Мбайт (9%)
Заголовок : DVO Кубик в кубе
Язык : English
Default : Нет
Forced : Нет
Аудио #2
Идентификатор : 3
Формат : AC-3
Формат/Информация : Audio Coding 3
Расширение режима : CM (complete main)
Параметр Endianness формата : Big
Идентификатор кодека : A_AC3
Продолжительность : 2 ч. 30 м.
Вид битрейта : Постоянный
Битрейт : 448 Кбит/сек
Каналы : 6 каналов
Расположение каналов : Front: L C R, Side: L R, LFE
Частота : 48,0 КГц
Битовая глубина : 16 бит
Метод сжатия : С потерями
Размер потока : 482 Мбайт (9%)
Заголовок : Оригинал / Original
Язык : English
Default : Да
Forced : Нет
Текст #1
Идентификатор : 4
Формат : UTF-8
Идентификатор кодека : S_TEXT/UTF8
Идентификатор кодека/Информация : UTF-8 Plain Text
Заголовок : Forced
Язык : Russian
Default : Да
Forced : Нет
Текст #2
Идентификатор : 5
Формат : UTF-8
Идентификатор кодека : S_TEXT/UTF8
Идентификатор кодека/Информация : UTF-8 Plain Text
Заголовок : Full_Voronine
Язык : Russian
Default : Нет
Forced : Нет
Текст #3
Идентификатор : 6
Формат : UTF-8
Идентификатор кодека : S_TEXT/UTF8
Идентификатор кодека/Информация : UTF-8 Plain Text
Заголовок : SDH_Voronine
Язык : Russian
Default : Нет
Forced : Нет
Текст #4
Идентификатор : 7
Формат : UTF-8
Идентификатор кодека : S_TEXT/UTF8
Идентификатор кодека/Информация : UTF-8 Plain Text
Заголовок : SDH
Язык : English
Default : Нет
Forced : Нет
Меню
00:00:00.000 : en:00:00:00.000
00:10:53.111 : en:00:10:53.111
00:23:54.433 : en:00:23:54.433
00:44:12.066 : en:00:44:12.066
00:54:36.690 : en:00:54:36.690
01:06:36.367 : en:01:06:36.367
01:14:39.266 : en:01:14:39.266
01:27:29.161 : en:01:27:29.161
01:36:55.393 : en:01:36:55.393
01:53:14.246 : en:01:53:14.246
02:03:03.793 : en:02:03:03.793
02:14:10.751 : en:02:14:10.751
02:23:16.379 : en:02:23:16.379СкриншотыСравнение с BD BD- Rip
ДополнительноVO Чадов, AC3 5.1, 448 kbps, собрано с ЭТОГО исходника
СКАЧАТЬ http://sendfile.su/1054886
СКАЧАТЬ https://cloud.mail.ru/public/5b4b948fdd40/The.Town_...ip_cw_chadov.ac3 В сэмпле присутствуют все аудиодорожки
[Профиль] [ЛС]

Создавать темы 06-Авг-2015 22:53 (спустя 7 месяцев 16 дней)

Топик был перенесен из форума Фильмы до 2014 года в форум Фильмы до 2012 года
sergej644
 

Создавать темы 12-Июн-2016 07:54 (спустя 1 год 5 месяцев)

Топик был перенесен из форума Фильмы 2011 года в форум Фильмы 2010 года
Russian Mafia
 
Кто просматривает тему:

Форум Тема Автор Размер
Chanson (Шансон) VA - В город пришла весна. Душевный сборник к празднику - 2015, MP3, 256 kbps Magnat 697 MB
Альтернативная история и наука BBC. Древние затерянные города. Исчезнувшая столица фараона / Lost Cities of the Ancients. The Vanished Capital of the Pharaoh (2006) HDTV [H.264/1080i-LQ] KottoSoft 2.43 GB
BBC BBC: Византия - сказания о трёх городах / Byzantium: A Tale of Three Cities [серии 1-3 из 3] (Грэхам Джонстон) [2013 г., Документальный, история, HDTVRip 720p] skorpionN 3.67 GB
National Geographic NG: Исследователь 2.0: Проклятие затерянного города: Легенда о "Городе обезьяньего бога" / Explorer. Legend of the monkey God [сезон 8 эпизод 02] (Graham Townsley) [2015 г., Документальный,... skorpionN 1.44 GB
Viasat History Viasat History: Секреты устройства античных городов / Building the Ancient City [серии 1-2 из 2] (Paul Elston) [2015 г., Документальный, научно-познавательный, история, HDTVRip 720p] skorpionN 3.04 GB
Программы [Разное] Город потерянных душ v1.0 [Android 2.0+, RUS] TorrentFilm 2 MB
Программы [Разное] Чикаго ночной город Живые обои 1.0 [Android 2.3, RUS + ENG] TorrentFilm 9 MB
Детская литература Александр Волков - Волшебник Изумрудного города [Читает Николай Литвинов, 128 kbps] sergej644 103 MB
Показать сообщения:    

Текущее время: Сегодня 09:11

Часовой пояс: GMT



Вы не можете начинать темы
Вы не можете отвечать на сообщения
Вы не можете редактировать свои сообщения
Вы не можете удалять свои сообщения
Вы не можете голосовать в опросах
Вы не можете прикреплять файлы к сообщениям
Вы не можете скачивать файлы