Город бога / Cidade de Deus (2002) BDRip 1080p

 
Автор Сообщение

Russian Mafia ®

Пол:

Стаж: 1 год 8 месяцев

Сообщений: 4247



Награды: 10 (Подробнее)

Mega Seeder 4 (Количество: 1) За внесенный вклад в развитие сайта (Количество: 1) Top Releaser 4 (Количество: 1)
Торрент-статистика

Создавать темы 27-Окт-2015 06:11

[Цитировать]

Информация о фильме
Название: Город бога
Оригинальное название: Cidade de Deus / City of God
Год выхода: 2002
Жанр: триллер, драма, криминал
Режиссер: Фернанду Мейреллиш, Катя Люнд
В ролях: Александр Родригез, Леандро Фирмино, Феллипе Хаагенсен, Дуглас Силва, Джонатан Хаагенсен, Матеус Нахтергейл, Сеу Хорхе, Жефехандер Суплино, Алиси Брага, Эмерсон Гомес
Страна: Франция, Бразилия
Студия: Globo Filmes
Продолжительность: 02:09:42
Перевод: Профессиональный многоголосый закадровый, профессиональный одноголосый закадровый
О фильме:
60-е годы XX века. «Город Бога» — квартал в Рио-де-Жанейро, где живут главные герои — 8-летний Ракета, мечтающий стать фотографом, и его одногодок Дадинью. Дадинью принимает участие в вооруженном ограблении, организованном живущим по соседству гангстером Кабалейрой; с согласия Кабалейры он совершает свое первое убийство. 70-е годы. Ракета постоянно балансирует между мелкими правонарушениями и честной жизнью. На счету у Дадинью уже несколько убийств. Он возглавляет банду, которой управляет, используя хитрость и хладнокровное предательство. Поняв, что настоящая власть и большие деньги может дать только контроль над торговлей наркотиками в их квартале, он безжалостно идет к своей цели. 80-е годы. Ракета наконец получает фотоаппарат и осуществляет свою детскую мечту. Мечта Дадинью тоже сбылась: в 18 лет он стал самым крутым торговцем наркотиками в Рио. Вместе со своей армией юных хулиганов Дадинью безраздельно правит в квартале до тех пор, пока Мане Галинья не поклялся отомстить ему за то, что тот изнасиловал его подружку, и не решил убить его, чего бы это ни стоило. В фавеле начинается война…

Файл
Качество: BDRip 1080p
Видео: MPEG-4 AVC, 11.5 Мбит/с, 1920х1080
Аудио #1: Русский (АС3, 6 ch, 448 Кбит/с) Многоголосый (Мега-Видео)
Аудио #2: Русский (АС3, 6 ch, 448 Кбит/с) Одноголосый (RUSCICO Licence)
Аудио #3: Португальский (АС3, 6 ch, 448 Кбит/с)
Субтитры: Русские, английские

Награды и номинации

• Оскар, 2004 год
Номинации:
– Лучший режиссер (Фернанду Мейреллиш)
– Лучший адаптированный сценарий
– Лучшая работа оператора
– Лучший монтаж
• Золотой глобус, 2003 год
Номинации:
– Лучший фильм на иностранном языке — «Бразилия»
• Британская академия, 2003 год
Победитель:
– Лучший монтаж
Номинации:
– Лучший фильм на иностранном языке
• Европейская киноакадемия, 2002 год
Номинации:
– Приз Screen International Award

МедиаИнфо

Формат : Matroska
Версия формата : Version 2
Размер файла : 11,6 Гбайт
Продолжительность : 2 ч. 9 м.
Общий поток : 12,9 Мбит/сек
Название фильма : ~V~
Дата кодирования : UTC 2014-10-01 10:29:18
Программа кодирования : mkvmerge v6.1.0 ('Old Devil') built on Mar 4 2013 09:10:42
Библиотека кодирования : libebml v1.3.0 + libmatroska v1.4.0
Attachements : cover.png
Видео
Идентификатор : 1
Формат : AVC
Формат/Информация : Advanced Video Codec
Профиль формата : High@L4.1
Параметр CABAC формата : Да
Параметр ReFrames формата : 4 кадра
Идентификатор кодека : V_MPEG4/ISO/AVC
Продолжительность : 2 ч. 9 м.
Битрейт : 11,5 Мбит/сек
Ширина : 1920 пикселей
Высота : 1080 пикселей
Соотношение сторон : 16:9
Режим частоты кадров : Постоянный
Частота кадров : 23,976 кадра/сек
Цветовое пространство : YUV
Субдискретизация насыщенности : 4:2:0
Битовая глубина : 8 бит
Тип развёртки : Прогрессивная
Бит/(Пиксели*Кадры) : 0.231
Размер потока : 10,2 Гбайт (88%)
Заголовок : ~V~
Библиотека кодирования : x264 core 142 r2409+42 04be48a tMod [8-bit@all X86_64]
Настройки программы : cabac=1 / ref=4 / deblock=1:-3:-3 / analyse=0x3:0x133 / me=umh / subme=11 / psy=1 / fade_compensate=0.00 / psy_rd=1.00:0.00 / mixed_ref=1 / me_range=32 / chroma_me=1 / trellis=2 / 8x8dct=1 / cqm=0 / deadzone=21,11 / fast_pskip=0 / chroma_qp_offset=-1 / threads=12 / lookahead_threads=1 / sliced_threads=0 / nr=0 / decimate=0 / interlaced=0 / bluray_compat=0 / constrained_intra=0 / fgo=0 / bframes=9 / b_pyramid=2 / b_adapt=2 / b_bias=0 / direct=3 / weightb=1 / open_gop=0 / weightp=2 / keyint=240 / keyint_min=23 / scenecut=40 / intra_refresh=0 / rc=2pass / mbtree=0 / bitrate=11507 / ratetol=1.0 / qcomp=0.60 / qpmin=0:0:0 / qpmax=69:69:69 / qpstep=4 / cplxblur=20.0 / qblur=0.5 / ip_ratio=1.40 / pb_ratio=1.30 / aq=4:0.80 / aq-sensitivity=11.00 / aq-factor=1.00:1.00:1.00 / aq2=1:0.70 / aq2-sensitivity=10.00 / aq2-factor=1.00:1.00:1.00 / aq3=1:[0.60:0.60]:[0.60:0.60]:[0.60:0.60]:[0.60:0.60] / aq3-sensitivity=9.00 / aq3-factor=[1.00:1.00]:[1.00:1.00]:[1.00:1.00] / aq3-boundary=192:64:24
Язык : English
Default : Да
Forced : Нет
Аудио #1
Идентификатор : 2
Формат : AC-3
Формат/Информация : Audio Coding 3
Расширение режима : CM (complete main)
Параметр Endianness формата : Big
Идентификатор кодека : A_AC3
Продолжительность : 2 ч. 9 м.
Вид битрейта : Постоянный
Битрейт : 448 Кбит/сек
Каналы : 6 каналов
Расположение каналов : Front: L C R, Side: L R, LFE
Частота : 48,0 КГц
Битовая глубина : 16 бит
Метод сжатия : С потерями
Задержка видео : 14 с.
Размер потока : 416 Мбайт (3%)
Заголовок : MVO [Mega Video] AC3 5.1 448 kbps
Язык : Russian
Default : Да
Forced : Нет
Аудио #2
Идентификатор : 3
Формат : AC-3
Формат/Информация : Audio Coding 3
Расширение режима : CM (complete main)
Параметр Endianness формата : Big
Идентификатор кодека : A_AC3
Продолжительность : 2 ч. 9 м.
Вид битрейта : Постоянный
Битрейт : 448 Кбит/сек
Каналы : 6 каналов
Расположение каналов : Front: L C R, Side: L R, LFE
Частота : 48,0 КГц
Битовая глубина : 16 бит
Метод сжатия : С потерями
Задержка видео : 14 с.
Размер потока : 416 Мбайт (3%)
Заголовок : VO [RUSCICO Licence] AC3 5.1 448 kbps
Язык : Russian
Default : Нет
Forced : Нет
Аудио #3
Идентификатор : 4
Формат : AC-3
Формат/Информация : Audio Coding 3
Расширение режима : CM (complete main)
Параметр Endianness формата : Big
Идентификатор кодека : A_AC3
Продолжительность : 2 ч. 9 м.
Вид битрейта : Постоянный
Битрейт : 448 Кбит/сек
Каналы : 6 каналов
Расположение каналов : Front: L C R, Side: L R, LFE
Частота : 48,0 КГц
Битовая глубина : 16 бит
Метод сжатия : С потерями
Размер потока : 416 Мбайт (3%)
Заголовок : [Brazilian Portuguese] AC3 5.1 448 kbps
Язык : Portuguese
Default : Нет
Forced : Нет
Текст #1
Идентификатор : 5
Формат : UTF-8
Идентификатор кодека : S_TEXT/UTF8
Идентификатор кодека/Информация : UTF-8 Plain Text
Заголовок : RUSCICO Licence
Язык : Russian
Default : Нет
Forced : Нет
Текст #2
Идентификатор : 6
Формат : UTF-8
Идентификатор кодека : S_TEXT/UTF8
Идентификатор кодека/Информация : UTF-8 Plain Text
Заголовок : Sleng
Язык : Russian
Default : Нет
Forced : Нет
Текст #3
Идентификатор : 7
Формат : UTF-8
Идентификатор кодека : S_TEXT/UTF8
Идентификатор кодека/Информация : UTF-8 Plain Text
Язык : English
Default : Нет
Forced : Нет
Меню
00:00:00.000 : en:00:00:00.000
00:09:13.470 : en:00:09:13.470
00:17:31.259 : en:00:17:31.259
00:26:08.358 : en:00:26:08.358
00:34:04.417 : en:00:34:04.417
00:40:32.805 : en:00:40:32.805
00:47:30.681 : en:00:47:30.681
00:54:29.725 : en:00:54:29.725
01:03:15.166 : en:01:03:15.166
01:10:56.210 : en:01:10:56.210
01:19:45.322 : en:01:19:45.322
01:28:06.281 : en:01:28:06.281
01:37:11.993 : en:01:37:11.993
01:44:37.438 : en:01:44:37.438
01:52:42.673 : en:01:52:42.673
02:04:15.948 : en:02:04:15.948

х264

x264 [info]: frame I:1131 Avg QP:18.28 size:152871
x264 [info]: frame P:44076 Avg QP:19.69 size: 95399
x264 [info]: frame B:141386 Avg QP:20.95 size: 45979

Скриншоты


[Профиль] [ЛС]
Кто просматривает тему:

Форум Тема Автор Размер
Chanson (Шансон) VA - В город пришла весна. Душевный сборник к празднику - 2015, MP3, 256 kbps Magnat 697 MB
Альтернативная история и наука BBC. Древние затерянные города. Исчезнувшая столица фараона / Lost Cities of the Ancients. The Vanished Capital of the Pharaoh (2006) HDTV [H.264/1080i-LQ] KottoSoft 2.43 GB
BBC BBC: Византия - сказания о трёх городах / Byzantium: A Tale of Three Cities [серии 1-3 из 3] (Грэхам Джонстон) [2013 г., Документальный, история, HDTVRip 720p] skorpionN 3.67 GB
National Geographic NG: Исследователь 2.0: Проклятие затерянного города: Легенда о "Городе обезьяньего бога" / Explorer. Legend of the monkey God [сезон 8 эпизод 02] (Graham Townsley) [2015 г., Документальный,... skorpionN 1.44 GB
Viasat History Viasat History: Секреты устройства античных городов / Building the Ancient City [серии 1-2 из 2] (Paul Elston) [2015 г., Документальный, научно-познавательный, история, HDTVRip 720p] skorpionN 3.04 GB
Программы [Разное] Город потерянных душ v1.0 [Android 2.0+, RUS] TorrentFilm 2 MB
Программы [Разное] Чикаго ночной город Живые обои 1.0 [Android 2.3, RUS + ENG] TorrentFilm 9 MB
Детская литература Александр Волков - Волшебник Изумрудного города [Читает Николай Литвинов, 128 kbps] sergej644 103 MB
Показать сообщения:    

Текущее время: Сегодня 12:35

Часовой пояс: GMT



Вы не можете начинать темы
Вы не можете отвечать на сообщения
Вы не можете редактировать свои сообщения
Вы не можете удалять свои сообщения
Вы не можете голосовать в опросах
Вы не можете прикреплять файлы к сообщениям
Вы не можете скачивать файлы