Горный мастер (Инесса Ковалевская) [1978 г., мультфильм, DVB]

 
Автор Сообщение

TorrentFilm ®

Пол:

Стаж: 2 года 5 месяцев

Сообщений: 7773



Награды: Нет

Торрент-статистика

Создавать темы 02-Янв-2016 00:05

[Цитировать]

Горный мастер
Жанр: мультфильм
Год выпуска: 1978
Продолжительность: 00:17:28
Режиссёр: Инесса Ковалевская
Описание: мультфильм воспевает замечательное искусство уральских мастеров-умельцев, чудесных резчиков по камню. Одновременно фильм рассказывает о богатстве души трудового человека, о его верности и преданной любви ...
Доп. информация: мультфильм создан по известным сказкам Павла Петровича Бажова

Трансляция спутникового канала: "Карусель"
Качество видео: DVB
Формат видео: MPEG-PS
Видео: MPEG2 Video, 720x576, 25 fps, 3500 kbps
Аудио: MPEG Audio, 2 сh, 48 kHz, 192 kbps

MediaInfo

General
Complete name : D:\MULT\РАЗДАЧА\Горный мастер. (1978)_DVB by SLuMeP.mpg
Format : MPEG-PS
File size : 469 MiB
Duration : 17mn 28s
Overall bit rate mode : Variable
Overall bit rate : 3 748 Kbps
Video
ID : 224 (0xE0)
Format : MPEG Video
Format version : Version 2
Format profile : Main@Main
Format settings, BVOP : Yes
Format settings, Matrix : Custom
Format settings, GOP : M=3, N=12
Duration : 17mn 28s
Bit rate mode : Variable
Bit rate : 3 481 Kbps
Maximum bit rate : 5 000 Kbps
Width : 720 pixels
Height : 576 pixels
Display aspect ratio : 4:3
Frame rate : 25.000 fps
Standard : PAL
Color space : YUV
Chroma subsampling : 4:2:0
Bit depth : 8 bits
Scan type : Interlaced
Scan order : Top Field First
Compression mode : Lossy
Bits/(Pixel*Frame) : 0.336
Time code of first frame : 00:00:00:00
Time code source : Group of pictures header
Stream size : 435 MiB (93%)
Audio
ID : 192 (0xC0)
Format : MPEG Audio
Format version : Version 1
Format profile : Layer 2
Duration : 17mn 28s
Bit rate mode : Constant
Bit rate : 192 Kbps
Channel(s) : 2 channels
Sampling rate : 48.0 KHz
Compression mode : Lossy
Stream size : 24.0 MiB (5%)

Скриншоты

[Профиль] [ЛС]
Показать сообщения:    

Текущее время: Сегодня 08:58

Часовой пояс: GMT



Вы не можете начинать темы
Вы не можете отвечать на сообщения
Вы не можете редактировать свои сообщения
Вы не можете удалять свои сообщения
Вы не можете голосовать в опросах
Вы не можете прикреплять файлы к сообщениям
Вы не можете скачивать файлы