Горнолыжный курорт Красная Поляна (RTGHD) [2013, Документальный, HDTV 1080i]

 
Автор Сообщение

TorrentFilm ®

Пол:

Стаж: 2 года

Сообщений: 7741



Награды: Нет

Торрент-статистика

Создавать темы 28-Янв-2015 00:00

[Цитировать]

Горнолыжный курорт Красная Поляна
Год выпуска: 2013
Страна: Россия
Жанр: Документальный
Продолжительность: 00:23:25
Перевод: Не требуется
Описание: Сочи - один из самых известных российских курортов. Сюда традиционно приезжают туристы, чтобы насладиться пляжным отдыхом и искупаться в Черном море. Но и зимой число туристов не убавляется. Так как это время отдыха на горнолыжных курортах Красной Поляны, поселка в часе езды от аэропорта Сочи. Ведущая Надежда Лебедева приехала в Красную Поляну, чтобы покататься на сноуборде, совершить путешествие в горы и побывать на новом горнолыжном курорте Роза Хутор.
Доп. информация: IPTV Remux (запись потока без перекодирования).
Тип релиза: HDTV 1080i
Контейнер: TS
Видео: AVC H.264, 1920x1080i (16:9), 25 fps, 7350 kbps, 0.142 bits/pixel
Аудио: MPEG Audio, 2 channels, 192 kbps, 48KHz

MediaInfo

GeneralID : 1 (0x1)Complete name : Горнолыжный курорт Красная Поляна.tsFormat : MPEG-TSFile size : 1.30 GiBDuration : 23mn 25sOverall bit rate mode : VariableOverall bit rate : 7 936 Kbps
VideoID : 601 (0x259)Menu ID : 1 (0x1)Format : AVCFormat/Info : Advanced Video CodecFormat profile : Main@L4.0Format settings, CABAC : YesFormat settings, ReFrames : 3 framesFormat settings, GOP : M=4, N=36Codec ID : 27Duration : 23mn 25sBit rate : 7 350 KbpsWidth : 1 920 pixelsHeight : 1 080 pixelsDisplay aspect ratio : 16:9Frame rate : 25.000 fpsStandard : ComponentColor space : YUVChroma subsampling : 4:2:0Bit depth : 8 bitsScan type : InterlacedScan order : Top Field FirstBits/(Pixel*Frame) : 0.142Stream size : 1.20 GiB (93%)Color primaries : BT.709Transfer characteristics : BT.709Matrix coefficients : BT.709
AudioID : 602 (0x25A)Menu ID : 1 (0x1)Format : MPEG AudioFormat version : Version 1Format profile : Layer 2Codec ID : 3Duration : 23mn 25sBit rate mode : ConstantBit rate : 192 KbpsChannel(s) : 2 channelsSampling rate : 48.0 KHzCompression mode : LossyStream size : 32.2 MiB (2%)Language : Russian

Скриншоты

[Профиль] [ЛС]
Показать сообщения:    

Текущее время: Сегодня 08:13

Часовой пояс: GMT



Вы не можете начинать темы
Вы не можете отвечать на сообщения
Вы не можете редактировать свои сообщения
Вы не можете удалять свои сообщения
Вы не можете голосовать в опросах
Вы не можете прикреплять файлы к сообщениям
Вы не можете скачивать файлы