Горец 2: Оживление / Highlander II: The Quickening (1991) BDRip 1080p | D, P, P2, A

 
Автор Сообщение

Russian Mafia ®

Пол:

Стаж: 1 год 8 месяцев

Сообщений: 4257



Награды: 10 (Подробнее)

Mega Seeder 3 (Количество: 1) Mega Seeder 1 (Количество: 1) Top Releaser 2 (Количество: 1)
Торрент-статистика

Создавать темы 01-Сен-2016 09:29

[Цитировать]

Информация о фильме
Название: Укажите принятое в России название
Оригинальное название: Оригинальное название (для иностранных фильмов)
Год выпуска: 1991
Страна: Франция, Великобритания, Аргентина
Жанр: Фантастика, боевик
Продолжительность: 01:49:43
Перевод: Профессиональный (полное дублирование), РТР
Перевод: Профессиональный (полное дублирование), Хлопушка
Перевод: Профессиональный (многоголосый закадровый), DVD Group
Перевод: Профессиональный (многоголосый закадровый), ТВЦ
Перевод: Профессиональный (двухголосый закадровый)
Перевод: Авторский (одноголосый закадровый), С. Визгунов
Cубтитры: Русские, английские
Режиссер: Рассел Малкэй
В ролях: Шон Коннери, Вирджиния Мэдсен, Кристофер Ламберт, Майкл Айронсайд, Аллан Рич, Джон К. МакГинли, Фил Брок, Расти Швиммер, Эд Трукко, Стивен Грайвз
Описание: 1999 год: с истощением озонового слоя жизнь на земле становится опасной для людей, и Коннор Маклауд возглавляет строительство гигантского энергетического щита для защиты земного шара.
2034 год: использование щита могущественной корпорацией обрекает планету на экологическую катастрофу. Коннор Маклауд ведет жизнь простого смертного. Но когда Катана — правитель планеты Зейст, прародины всех бессмертных воинов, бросает вызов Горцу, Маклауд вновь обретает свою мистическую силу.
Он оживляет своего учителя Рамиреса, и они вступают в решающее сражение с прибывшим на Землю Катаной и с корпорацией для того, чтобы разрушить энергетический щит и вернуть планете солнечный свет.

Качество: BDRip 1080p
Формат: MKV
Видео кодек: H264
Аудио кодек: AC3
Видео: MPEG4 Video (H264), 1920x792, 23.976fps, 14.0 Mbps
Аудио #01: Русский: Dolby AC3, 48000 Hz, 2ch, 224 kbps - Дубляж, РТР
Аудио #02: Русский: Dolby AC3, 48000 Hz, 2ch, 192 kbps - Дубляж, Хлопушка
Аудио #03: Русский: Dolby AC3, 48000 Hz, 6ch, 448 kbps - Многоголосый, DVD Group
Аудио #04: Русский: Dolby AC3, 48000 Hz, 2ch, 192 kbps - Многоголосый, ТВЦ
Аудио #05: Русский: Dolby AC3, 48000 Hz, 6ch, 384 kbps - Двухголосый
Аудио #06: Русский: Dolby AC3, 48000 Hz, 6ch, 384 kbps - Одноголосый, С. Визгунов
Аудио #07: Английский: Dolby AC3, 48000 Hz, 6ch, 448 kbps
Формат субтитров: softsub (SRT)
Сэмпл

MediaInfo:

General
Unique ID : 182454623513010728088006020738884798966 (0x89437B7775B0429EA6F8DDCA15E389F6)
Complete name : F:Torrent 21991.Highlander.2.renta23.mkv
Format : Matroska
Format version : Version 4 / Version 2
File size : 12.5 GiB
Duration : 1 h 49 min
Overall bit rate : 16.3 Mb/s
Movie name : 1991 Горец / renta23
Encoded date : UTC 2016-09-01 08:41:46
Writing application : mkvmerge v8.3.0 ('Over the Horizon') 64bit
Writing library : libebml v1.3.1 + libmatroska v1.4.2
Video
ID : 1
Format : AVC
Format/Info : Advanced Video Codec
Format profile : High@L4.1
Format settings, CABAC : Yes
Format settings, ReFrames : 5 frames
Codec ID : V_MPEG4/ISO/AVC
Duration : 1 h 49 min
Bit rate : 14.0 Mb/s
Width : 1 920 pixels
Height : 792 pixels
Display aspect ratio : 2.40:1
Frame rate mode : Constant
Frame rate : 23.976 (24000/1001) FPS
Color space : YUV
Chroma subsampling : 4:2:0
Bit depth : 8 bits
Scan type : Progressive
Bits/(Pixel*Frame) : 0.384
Stream size : 10.7 GiB (86%)
Title : 1991 Горец
Writing library : x264 core 146 r2538 121396c
Encoding settings : cabac=1 / ref=5 / deblock=1:-1:-1 / analyse=0x3:0x133 / me=umh / subme=11 / psy=1 / psy_rd=1.07:0.23 / mixed_ref=1 / me_range=32 / chroma_me=1 / trellis=2 / 8x8dct=1 / cqm=0 / deadzone=21,11 / fast_pskip=0 / chroma_qp_offset=-3 / threads=12 / lookahead_threads=3 / sliced_threads=0 / nr=0 / decimate=1 / interlaced=0 / bluray_compat=0 / constrained_intra=0 / bframes=12 / b_pyramid=2 / b_adapt=2 / b_bias=0 / direct=3 / weightb=1 / open_gop=0 / weightp=2 / keyint=250 / keyint_min=23 / scenecut=40 / intra_refresh=0 / rc=2pass / mbtree=0 / bitrate=14000 / ratetol=1.0 / qcomp=0.60 / qpmin=0 / qpmax=69 / qpstep=4 / cplxblur=20.0 / qblur=0.5 / ip_ratio=1.40 / pb_ratio=1.30 / aq=2:1.00
Language : English
Default : Yes
Forced : No
Audio #1
ID : 2
Format : AC-3
Format/Info : Audio Coding 3
Mode extension : CM (complete main)
Format settings, Endianness : Big
Codec ID : A_AC3
Duration : 1 h 49 min
Bit rate mode : Constant
Bit rate : 224 kb/s
Channel(s) : 2 channels
Channel positions : Front: L R
Sampling rate : 48.0 kHz
Frame rate : 31.250 FPS (1536 spf)
Compression mode : Lossy
Stream size : 176 MiB (1%)
Title : Дубляж, РТР
Language : Russian
Default : Yes
Forced : No
Audio #2
ID : 3
Format : AC-3
Format/Info : Audio Coding 3
Mode extension : CM (complete main)
Format settings, Endianness : Big
Codec ID : A_AC3
Duration : 1 h 49 min
Bit rate mode : Constant
Bit rate : 192 kb/s
Channel(s) : 2 channels
Channel positions : Front: L R
Sampling rate : 48.0 kHz
Frame rate : 31.250 FPS (1536 spf)
Compression mode : Lossy
Stream size : 151 MiB (1%)
Title : Дубляж, Хлопушка
Language : Russian
Default : No
Forced : No
Audio #3
ID : 4
Format : AC-3
Format/Info : Audio Coding 3
Mode extension : CM (complete main)
Format settings, Endianness : Big
Codec ID : A_AC3
Duration : 1 h 49 min
Bit rate mode : Constant
Bit rate : 448 kb/s
Channel(s) : 6 channels
Channel positions : Front: L C R, Side: L R, LFE
Sampling rate : 48.0 kHz
Frame rate : 31.250 FPS (1536 spf)
Compression mode : Lossy
Stream size : 352 MiB (3%)
Title : Многоголосый, DVD Group
Language : Russian
Default : No
Forced : No
Audio #4
ID : 5
Format : AC-3
Format/Info : Audio Coding 3
Mode extension : CM (complete main)
Format settings, Endianness : Big
Codec ID : A_AC3
Duration : 1 h 49 min
Bit rate mode : Constant
Bit rate : 192 kb/s
Channel(s) : 2 channels
Channel positions : Front: L R
Sampling rate : 48.0 kHz
Frame rate : 31.250 FPS (1536 spf)
Compression mode : Lossy
Stream size : 151 MiB (1%)
Title : Многоголосый, ТВЦ
Language : Russian
Default : No
Forced : No
Audio #5
ID : 6
Format : AC-3
Format/Info : Audio Coding 3
Mode extension : CM (complete main)
Format settings, Endianness : Big
Codec ID : A_AC3
Duration : 1 h 49 min
Bit rate mode : Constant
Bit rate : 384 kb/s
Channel(s) : 6 channels
Channel positions : Front: L C R, Side: L R, LFE
Sampling rate : 48.0 kHz
Frame rate : 31.250 FPS (1536 spf)
Compression mode : Lossy
Stream size : 301 MiB (2%)
Title : Двухголосый
Language : Russian
Default : No
Forced : No
Audio #6
ID : 7
Format : AC-3
Format/Info : Audio Coding 3
Mode extension : CM (complete main)
Format settings, Endianness : Big
Codec ID : A_AC3
Duration : 1 h 49 min
Bit rate mode : Constant
Bit rate : 384 kb/s
Channel(s) : 6 channels
Channel positions : Front: L C R, Side: L R, LFE
Sampling rate : 48.0 kHz
Frame rate : 31.250 FPS (1536 spf)
Compression mode : Lossy
Stream size : 301 MiB (2%)
Title : Одноголосый, С. Визгунов
Language : Russian
Default : No
Forced : No
Audio #7
ID : 8
Format : AC-3
Format/Info : Audio Coding 3
Mode extension : CM (complete main)
Format settings, Endianness : Big
Codec ID : A_AC3
Duration : 1 h 49 min
Bit rate mode : Constant
Bit rate : 448 kb/s
Channel(s) : 6 channels
Channel positions : Front: L C R, Side: L R, LFE
Sampling rate : 48.0 kHz
Frame rate : 31.250 FPS (1536 spf)
Compression mode : Lossy
Stream size : 352 MiB (3%)
Language : English
Default : No
Forced : No
Text #1
ID : 9
Format : UTF-8
Codec ID : S_TEXT/UTF8
Codec ID/Info : UTF-8 Plain Text
Duration : 1 h 43 min
Bit rate : 48 b/s
Count of elements : 666
Stream size : 36.6 KiB (0%)
Language : Russian
Default : No
Forced : No
Text #2
ID : 10
Format : UTF-8
Codec ID : S_TEXT/UTF8
Codec ID/Info : UTF-8 Plain Text
Duration : 1 h 38 min
Bit rate : 34 b/s
Count of elements : 808
Stream size : 24.7 KiB (0%)
Language : English
Default : No
Forced : No
Menu
00:00:00.000 : en:Main Titles/Operatic Overture
00:04:29.060 : en:The Last Time
00:09:31.195 : en:Future Exile
00:14:15.521 : en:Fish Out of Water
00:18:00.496 : en:Sheild Tampering
00:22:52.996 : en:On the Run
00:29:15.003 : en:Kiss of Death
00:34:50.087 : en:All the World's a Stage
00:39:19.357 : en:Clothes Make the Man
00:43:51.629 : en:Once Before I Die
00:48:17.185 : en:Speed Kills
00:53:03.180 : en:Launching the Sheild
00:58:02.729 : en:My Kind of Town
01:02:35.918 : en:On Holy Ground
01:06:16.889 : en:Immortal Embattled
01:12:32.973 : en:Greetings, Highlander
01:16:28.041 : en:Business As Usual
01:21:30.427 : en:Security Breach
01:25:50.395 : en:Full Measure of Life
01:31:07.670 : en:Above the Sheild
01:36:55.142 : en:Executive Decision Making
01:38:25.774 : en:There Can Be Only One
01:41:09.980 : en:Raising the Roof
01:43:45.218 : en:End Credits

Скриншоты:


[Профиль] [ЛС]
Кто просматривает тему:

Форум Тема Автор Размер
Фильмы (HD Rips | 720p, 1080p) Горец / Highlander (1986) BDRip 1080p by msltel Russian Mafia 17.87 GB
Фильмы (HD Rips | 720p, 1080p) Горец / Highlander (1986) BDRip 1080p | P, A | Remastered Russian Mafia 12.77 GB
Фильмы (HD Rips | 720p, 1080p) Горец / Highlander (1986) BDRip 720p by msltel Russian Mafia 7.51 GB
Фильмы 2011 года Горец / Highlander (1986) BDRip-AVC by msltel Russian Mafia 5.09 GB
Фильмы (HD Rips | 720p, 1080p) Горец / Highlander (Рассел Малкэй / Russell Mulcahy) [1986 г., США, Боевик, фэнтези, приключения, BDRip 1080p] [Режиссерская версия / Director's Cut] MVO + 4x AVO (Гаврилов, Визгунов, Горчаков... Russian Mafia 9.51 GB
Фильмы 2011 года Горец / Highlander (Расселл Малкахи / Russell Mulcahy) [1986, США, Великобритания, фэнтези, боевик, триллер, приключения, BDRip] [Режиссерская версия / Director's cut] MVO (ОРТ) + Original Eng Russian Mafia 2.14 GB
Зарубежные сериалы Горец / Highlander / Сезон: 1 / Серии: 1-22 (22) + доп. материалы (Дэннис Берри) [1992-1993, боевик, драма, фантастика, BDRip 720p] DVO (Селена Интернешнл по заказу ОРТ) + Original Russian Mafia 40.83 GB
Зарубежные сериалы Горец / Highlander / Сезон: 1-6 / Серии: 1-119 из 119 (Дэннис Берри) [1992-1998, Боевиик, Фантастика, DVB] DVO (Селена Интернешнл) Russian Mafia 191.59 GB
Показать сообщения:    

Текущее время: Сегодня 06:05

Часовой пояс: GMT



Вы не можете начинать темы
Вы не можете отвечать на сообщения
Вы не можете редактировать свои сообщения
Вы не можете удалять свои сообщения
Вы не можете голосовать в опросах
Вы не можете прикреплять файлы к сообщениям
Вы не можете скачивать файлы