Горец 2: Оживление / Highlander II: The Quickening (Рассел Малкэй / Russell Mulcahy) [1991, Франция, Великобритания, Аргентина, фантастика, фэнтези, боевик, BDRip] Dub (РТР) + MVOx2 + DVO + AVO (Визгунов) + Sub (Rus, Eng) + Original Eng

 
Автор Сообщение

Russian Mafia ®

Пол:

Стаж: 1 год 8 месяцев

Сообщений: 4256



Награды: 10 (Подробнее)

Mega Seeder 5 (Количество: 1) Top Releaser 3 (Количество: 1) Top Releaser 4 (Количество: 1)
Торрент-статистика

Создавать темы 21-Мар-2016 09:20

[Цитировать]

Горец 2: Оживление
Highlander II: The Quickening
-Страна: Франция, Великобритания, Аргентина
Жанр: фантастика, фэнтези, боевик
Год выпуска: 1991
Продолжительность: 01:49:42-Перевод: Профессиональный (дублированный) РТР
Перевод 2: Профессиональный (многоголосый закадровый) ТВЦ
Перевод 3: Профессиональный (многоголосый, закадровый) DVD Group
Перевод 4: Профессиональный (двухголосый)
Перевод 5: Авторский (Визгунов Сергей)
Cубтитры: Русские, английские
Оригинальная аудиодорожка: английский-Режиссер: Рассел Малкэй / Russell Mulcahy-В ролях: Кристофер Ламберт, Шон Коннери, Вирджиния Мэдсен, Майкл Айронсайд, Аллан Рич, Джон К. МакГинли, Филлип Брок, Расти Швиммер, Эд Трукко, Стивен Грайвз-Описание: 1999 год: с истощением озонового слоя жизнь на земле становится опасной для людей, и Коннор Маклауд возглавляет строительство гигантского энергетического щита для защиты земного шара.
2034 год: использование щита могущественной корпорацией обрекает планету на экологическую катастрофу. Коннор Маклауд ведет жизнь простого смертного. Но когда Катана - правитель планеты Зейст, прародины всех бессмертных воинов, бросает вызов Горцу, Маклауд вновь обретает свою мистическую силу.
Он оживляет своего учителя Рамиреса, и они вступают в решающее сражение с прибывшим на Землю Катаной и с корпорацией для того, чтобы разрушить энергетический щит и вернуть планете солнечный свет.

-Релиз от:
Автор рипа: sociolog_melvas-Качество видео: BDRip GENR12 / BDRemux / 1080p)
Формат видео: AVI
Video: 720x304 (2.37:1), 23.976 fps, XviD MPEG-4 ~2080 kbps avg, 0.40 bit/pixel
Audio #1: 48 kHz, AC3 Dolby Digital, 2/0 (L,R) ch, ~192 kbps |Dub (РТР)|
Audio #2: 48 kHz, AC3 Dolby Digital, 2/0 (L,R) ch, ~192 kbps |MVO (ТВЦ)|
Audio #3: AC3; 48.0 KHz, 448 Kbps; CBR; 6 ch |DVD Group| - отдельно
Audio #4: AC3; 48.0 KHz, 448 Kbps; CBR; 6 ch |DVO| - отдельно
Audio #5: AC3; 48.0 KHz, 448 Kbps; CBR; 6 ch |Визгунов| - отдельно
Audio #6: 48 kHz, AC3 Dolby Digital, 3/2 (L,C,R,l,r) + LFE ch, ~384 kbps |Original|

MediaInfo

Общее
Полное имя : C:\Users\к\Desktop\фильмы\Gorec.2.Ozhivlenie.1991.BDRip.XviD.AC3.avi
Формат : AVI
Формат/Информация : Audio Video Interleave
Профиль формата : OpenDML
Размер файла : 2,19 Гбайт
Продолжительность : 1 ч. 49 м.
Общий поток : 2855 Кбит/сек
Название фильма : Горец 2: Оживление / Highlander II: The Quickening (1991) BDRip
Режиссёр : sociolog_melvas
Жанр : фантастика, фэнтези, боевик
Программа кодирования : VirtualDubMod 1.5.10.2 (build 2542/release)
Библиотека кодирования : VirtualDubMod build 2542/release
Правообладатель : http://hqclub.net/
Примечание : 13.10.2013
Видео
Идентификатор : 0
Формат : MPEG-4 Visual
Профиль формата : Advanced Simple@L5
Параметр BVOP формата : 1
Параметр QPel формата : Нет
Параметр GMC формата : Без точки перехода
Параметр матрицы формата : Выборочная
Идентификатор кодека : XVID
Идентификатор кодека/Подсказка : XviD
Продолжительность : 1 ч. 49 м.
Битрейт : 2063 Кбит/сек
Ширина : 720 пикселей
Высота : 304 пикселя
Соотношение сторон : 2,35:1
Частота кадров : 23,976 кадра/сек
Цветовое пространство : YUV
Субдискретизация насыщенности : 4:2:0
Битовая глубина : 8 бит
Тип развёртки : Прогрессивная
Метод сжатия : С потерями
Бит/(Пиксели*Кадры) : 0.393
Размер потока : 1,58 Гбайт (72%)
Библиотека кодирования : XviD 65
Аудио #1
Идентификатор : 1
Формат : AC-3
Формат/Информация : Audio Coding 3
Расширение режима : CM (complete main)
Параметр Endianness формата : Big
Идентификатор кодека : 2000
Продолжительность : 1 ч. 49 м.
Вид битрейта : Постоянный
Битрейт : 192 Кбит/сек
Каналы : 2 канала
Расположение каналов : Front: L R
Частота : 48,0 КГц
Битовая глубина : 16 бит
Метод сжатия : С потерями
Размер потока : 151 Мбайт (7%)
Выравнивание : Соединение по промежуткам
Продолжительность промежутка : 42 мс. (1,00 видеокадр)
Время предзагрузки промежутка : 512 мс.
Аудио #2
Идентификатор : 2
Формат : AC-3
Формат/Информация : Audio Coding 3
Расширение режима : CM (complete main)
Параметр Endianness формата : Big
Идентификатор кодека : 2000
Продолжительность : 1 ч. 49 м.
Вид битрейта : Постоянный
Битрейт : 192 Кбит/сек
Каналы : 2 канала
Расположение каналов : Front: L R
Частота : 48,0 КГц
Битовая глубина : 16 бит
Метод сжатия : С потерями
Размер потока : 151 Мбайт (7%)
Выравнивание : Разделение по промежуткам
Продолжительность промежутка : 42 мс. (1,00 видеокадр)
Время предзагрузки промежутка : 500 мс.
Аудио #3
Идентификатор : 3
Формат : AC-3
Формат/Информация : Audio Coding 3
Расширение режима : CM (complete main)
Параметр Endianness формата : Big
Идентификатор кодека : 2000
Продолжительность : 1 ч. 49 м.
Вид битрейта : Постоянный
Битрейт : 384 Кбит/сек
Каналы : 6 каналов
Расположение каналов : Front: L C R, Side: L R, LFE
Частота : 48,0 КГц
Битовая глубина : 16 бит
Метод сжатия : С потерями
Размер потока : 301 Мбайт (13%)
Выравнивание : Разделение по промежуткам
Продолжительность промежутка : 42 мс. (1,00 видеокадр)
Время предзагрузки промежутка : 500 мс.

Скриншот c названием фильма

Скриншоты

[Профиль] [ЛС]
Кто просматривает тему:

Форум Тема Автор Размер
Фильмы (HD Rips | 720p, 1080p) Горец / Highlander (1986) BDRip 1080p by msltel Russian Mafia 17.87 GB
Фильмы (HD Rips | 720p, 1080p) Горец / Highlander (1986) BDRip 1080p | P, A | Remastered Russian Mafia 12.77 GB
Фильмы (HD Rips | 720p, 1080p) Горец / Highlander (1986) BDRip 720p by msltel Russian Mafia 7.51 GB
Фильмы 2011 года Горец / Highlander (1986) BDRip-AVC by msltel Russian Mafia 5.09 GB
Фильмы (HD Rips | 720p, 1080p) Горец / Highlander (Рассел Малкэй / Russell Mulcahy) [1986 г., США, Боевик, фэнтези, приключения, BDRip 1080p] [Режиссерская версия / Director's Cut] MVO + 4x AVO (Гаврилов, Визгунов, Горчаков... Russian Mafia 9.51 GB
Фильмы 2011 года Горец / Highlander (Расселл Малкахи / Russell Mulcahy) [1986, США, Великобритания, фэнтези, боевик, триллер, приключения, BDRip] [Режиссерская версия / Director's cut] MVO (ОРТ) + Original Eng Russian Mafia 2.14 GB
Зарубежные сериалы Горец / Highlander / Сезон: 1 / Серии: 1-22 (22) + доп. материалы (Дэннис Берри) [1992-1993, боевик, драма, фантастика, BDRip 720p] DVO (Селена Интернешнл по заказу ОРТ) + Original Russian Mafia 40.83 GB
Зарубежные сериалы Горец / Highlander / Сезон: 1-6 / Серии: 1-119 из 119 (Дэннис Берри) [1992-1998, Боевиик, Фантастика, DVB] DVO (Селена Интернешнл) Russian Mafia 191.59 GB
Показать сообщения:    

Текущее время: Сегодня 20:35

Часовой пояс: GMT



Вы не можете начинать темы
Вы не можете отвечать на сообщения
Вы не можете редактировать свои сообщения
Вы не можете удалять свои сообщения
Вы не можете голосовать в опросах
Вы не можете прикреплять файлы к сообщениям
Вы не можете скачивать файлы