Горец / Highlander / Сезон: 2 / Серии: 1-22 (22) + доп. материалы (Дэннис Берри) [1992-1998, Боевик, Фантастика, BDRip 720p] DVO (ОРТ) + Original

 
Автор Сообщение

Russian Mafia ®

Пол:

Стаж: 1 год 8 месяцев

Сообщений: 4246



Награды: 10 (Подробнее)

Mega Seeder 2 (Количество: 1) Mega Seeder 1 (Количество: 1) За внесенный вклад в развитие сайта (Количество: 1)
Торрент-статистика

Создавать темы 21-Мар-2016 09:17

[Цитировать]

Горец / Highlander
Год выпуска: 1992-1998
Страна: Канада, США, Франция
Жанр: Боевик, Фантастика
Продолжительность: ~00:49:00
Перевод: Профессиональный двухголосый закадровый
Русские субтитры: нет
Режиссёр: Дэннис Берри
В ролях: Адриан Пол, Стэн Кирш, Александра Вандернот
Описание: Он родился 400 лет назад в горах Шотландии, он бессмертный , но не только он один... Так начинается один из самых лучших сериалов созданных на американском телевидении в фантастическом жанре. В центре сюжета история бессмертного Дункана МакЛауда на протяжении 400 лет, пытающегося, несмотря на непростые жизненные ситуации и постоянную опасность лишиться жизни от меча другого бессмертного, найти свою любовь и быть счастливым. Компанией производящей сериал были вложены фантастические средства на костюмы, инвентарь, шикарные натурные съемки. Сериал снимался не только в Америке, несколько сезонов были сняты во Франции. Но колоссальные затраты были окуплены с лихвой: сериал имел бешенный успех во всем мире и был закуплен для показа во всех странах, исключая страны ближнего Востока. Также "Горец" получил множество престижных теленаград, как в Америке, так и за рубежом. Не стоит говорить о том, что сериал стал лучшей работой американского актера Эдриана Пола, сделавшей его международной звездой и любимцем женщин всего мира.- -
Качество: BDRip 720p
Формат: MKV
Видео кодек: H.264
Аудио кодек: AC3
Видео: H.264, 960x720 (4:3), 23,976 fps, ~4900 Kbps, 0.297 bit/pixel
Аудио: AC3, 48.0 KHz, 2ch, 192 Kbps / ОРТ /
Аудио 2: DTS, 48.0 KHz, 6ch, 1510 Kbps / Оригинал /

MI

Unique ID : 175374639124861786112701533436048288944 (0x83EFED492A61587689D3C208D5B7ACB0)
Complete name : G:\Torrent\Serials\Highlander S02 BDRip 720p\Highlander.s02e04.720p.BDRip The Darkness.mkv
Format : Matroska
Format version : Version 2
File size : 2,25 Гбайт
Duration : 48 м.
Overall bit rate : 6691 Кбит/сек
Encoded date : UTC 2012-01-11 06:06:35
Writing application : mkvmerge v5.2.0 ('I can't explain') built on Dec 18 2011 18:12:03
Writing library : libebml v1.2.3 + libmatroska v1.3.0
Видео
ID : 1
Format : AVC
Format/Info : Advanced Video Codec
Format profile : High@L4.1
Format settings, CABAC : Да
Format settings, ReFrames : 5 кадров
Codec ID : V_MPEG4/ISO/AVC
Duration : 48 м.
Bit rate : 4988 Кбит/сек
Width : 960 пикселей
Height : 720 пикселей
Display aspect ratio : 4:3
Frame rate : 23,976 кадра/сек
Color space : YUV
Chroma subsampling : 4:2:0
Bit depth : 8 бит
Scan type : Прогрессивная
Bits/(Pixel*Frame) : 0.301
Stream size : 1,63 Гбайт (73%)
Writing library : x264 core 115 r2008 4c552d8
Encoding settings : cabac=1 / ref=5 / deblock=1:0:0 / analyse=0x3:0x133 / me=umh / subme=7 / psy=1 / psy_rd=1.00:0.00 / mixed_ref=1 / me_range=16 / chroma_me=1 / trellis=1 / 8x8dct=1 / cqm=0 / deadzone=21,11 / fast_pskip=0 / chroma_qp_offset=-2 / threads=18 / sliced_threads=0 / nr=0 / decimate=1 / interlaced=0 / bluray_compat=0 / constrained_intra=0 / bframes=3 / b_pyramid=2 / b_adapt=1 / b_bias=0 / direct=1 / weightb=1 / open_gop=0 / weightp=2 / keyint=250 / keyint_min=23 / scenecut=40 / intra_refresh=0 / rc_lookahead=40 / rc=2pass / mbtree=1 / bitrate=4988 / ratetol=1.0 / qcomp=0.60 / qpmin=0 / qpmax=69 / qpstep=4 / cplxblur=20.0 / qblur=0.5 / ip_ratio=1.40 / aq=1:1.00
Language : English
Default : Да
Forced : Нет
Аудио #1
ID : 2
Format : AC-3
Format/Info : Audio Coding 3
Mode extension : CM (complete main)
Codec ID : A_AC3
Duration : 48 м.
Bit rate mode : Постоянный
Bit rate : 192 Кбит/сек
Channel(s) : 2 канала
Channel positions : Front: L R
Sampling rate : 48,0 КГц
Bit depth : 16 бит
Compression mode : С потерями
Stream size : 66,1 Мбайт (3%)
Language : Russian
Default : Да
Forced : Нет
Аудио #2
ID : 3
Format : DTS
Format/Info : Digital Theater Systems
Codec ID : A_DTS
Duration : 48 м.
Bit rate mode : Постоянный
Bit rate : 1510 Кбит/сек
Channel(s) : 6 каналов
Channel positions : Front: L C R, Side: L R, LFE
Sampling rate : 48,0 КГц
Bit depth : 24 бит
Compression mode : С потерями
Stream size : 520 Мбайт (23%)
Language : English
Default : Нет
Forced : Нет

Скриншоты

[Профиль] [ЛС]
Кто просматривает тему:

Форум Тема Автор Размер
Фильмы (HD Rips | 720p, 1080p) Горец / Highlander (1986) BDRip 1080p by msltel Russian Mafia 17.87 GB
Фильмы (HD Rips | 720p, 1080p) Горец / Highlander (1986) BDRip 1080p | P, A | Remastered Russian Mafia 12.77 GB
Фильмы (HD Rips | 720p, 1080p) Горец / Highlander (1986) BDRip 720p by msltel Russian Mafia 7.51 GB
Фильмы 2011 года Горец / Highlander (1986) BDRip-AVC by msltel Russian Mafia 5.09 GB
Фильмы (HD Rips | 720p, 1080p) Горец / Highlander (Рассел Малкэй / Russell Mulcahy) [1986 г., США, Боевик, фэнтези, приключения, BDRip 1080p] [Режиссерская версия / Director's Cut] MVO + 4x AVO (Гаврилов, Визгунов, Горчаков... Russian Mafia 9.51 GB
Фильмы 2011 года Горец / Highlander (Расселл Малкахи / Russell Mulcahy) [1986, США, Великобритания, фэнтези, боевик, триллер, приключения, BDRip] [Режиссерская версия / Director's cut] MVO (ОРТ) + Original Eng Russian Mafia 2.14 GB
Зарубежные сериалы Горец / Highlander / Сезон: 1 / Серии: 1-22 (22) + доп. материалы (Дэннис Берри) [1992-1993, боевик, драма, фантастика, BDRip 720p] DVO (Селена Интернешнл по заказу ОРТ) + Original Russian Mafia 40.83 GB
Зарубежные сериалы Горец / Highlander / Сезон: 1-6 / Серии: 1-119 из 119 (Дэннис Берри) [1992-1998, Боевиик, Фантастика, DVB] DVO (Селена Интернешнл) Russian Mafia 191.59 GB
Показать сообщения:    

Текущее время: Сегодня 20:09

Часовой пояс: GMT



Вы не можете начинать темы
Вы не можете отвечать на сообщения
Вы не можете редактировать свои сообщения
Вы не можете удалять свои сообщения
Вы не можете голосовать в опросах
Вы не можете прикреплять файлы к сообщениям
Вы не можете скачивать файлы