Горец / Highlander / Сезон: 1-6 / Серии: 1-119 из 119 (Дэннис Берри) [1992-1998, Боевиик, Фантастика, DVB] DVO (Селена Интернешнл)

 
Автор Сообщение

Russian Mafia ®

Пол:

Стаж: 2 года 4 месяца

Сообщений: 4249



Награды: 10 (Подробнее)

Mega Seeder 1 (Количество: 1) За внесенный вклад в развитие сайта (Количество: 1) Top Releaser 2 (Количество: 1)
Торрент-статистика

Создавать темы 21-Мар-2016 09:14

[Цитировать]

Горец / Highlander
Год выпуска: 1992-1998
Страна: Канада, США, Франция
Жанр: Боевиик, Фантастика
Продолжительность: ~00:45:00
Перевод: Профессиональный (двухголосый закадровый) Селена Интернешнл
Субтитры: нет
Режиссёр: Дэннис Берри
В ролях: Адриан Пол, Стэн Кирш, Александра Вандернот
Описание: Он родился 400 лет назад в горах Шотландии, он бессмертный , но не только он один... Так начинается один из самых лучших сериалов созданных на американском телевидении в фантастическом жанре. В центре сюжета история бессмертного Дункана МакЛауда на протяжении 400 лет, пытающегося, несмотря на непростые жизненные ситуации и постоянную опасность лишиться жизни от меча другого бессмертного, найти свою любовь и быть счастливым. Компанией производящей сериал были вложены фантастические средства на костюмы, инвентарь, шикарные натурные съемки. Сериал снимался не только в Америке, несколько сезонов были сняты во Франции. Но колоссальные затраты были окуплены с лихвой: сериал имел бешенный успех во всем мире и был закуплен для показа во всех странах, исключая страны ближнего Востока. Также "Горец" получил множество престижных теленаград, как в Америке, так и за рубежом. Не стоит говорить о том, что сериал стал лучшей работой американского актера Эдриана Пола, сделавшей его международной звездой и любимцем женщин всего мира.
Качество: DVB
Формат: TS
Видео кодек: MPEG2
Аудио кодек: MP2
Видео: MPEG2, 720x576 (4:3), 25 fps , 4716 kbps, 0.455 bit/pixel
Аудио: MP2, 48 kHz, 2 ch, 192 kbps [русский]

MediaInfo

Общее
Идентификатор : 1 (0x1)
Полное имя : D:\1-1 The Gathering.ts
Формат : MPEG-TS
Размер файла : 1,66 Гбайт
Продолжительность : 45 м.
Режим общего битрейта : Переменный
Общий поток : 5166 Кбит/сек
Видео
Идентификатор : 301 (0x12D)
Идентификатор меню : 1 (0x1)
Формат : MPEG Video
Версия формата : Version 2
Профиль формата : Main@Main
Параметр BVOP формата : Да
Параметр матрицы формата : Выборочная
Параметр GOP формата : Variable
Идентификатор кодека : 2
Продолжительность : 45 м.
Вид битрейта : Переменный
Битрейт : 4716 Кбит/сек
Максимальный битрейт : 15,0 Мбит/сек
Ширина : 720 пикселей
Высота : 576 пикселей
Соотношение сторон : 4:3
Частота кадров : 25,000 кадров/сек
Стандарт вещания : PAL
Цветовое пространство : YUV
Субдискретизация насыщенности : 4:2:0
Битовая глубина : 8 бит
Метод сжатия : С потерями
Бит/(Пиксели*Кадры) : 0.455
Временной код первого кадра : 00:00:00:00
Оригинал временного кода : Group of pictures header
Размер потока : 1,51 Гбайт (91%)
Аудио
Идентификатор : 401 (0x191)
Идентификатор меню : 1 (0x1)
Формат : MPEG Audio
Версия формата : Version 1
Профиль формата : Layer 2
Идентификатор кодека : 3
Продолжительность : 45 м.
Вид битрейта : Постоянный
Битрейт : 192 Кбит/сек
Каналы : 2 канала
Частота : 48,0 КГц
Метод сжатия : С потерями
Задержка видео : 13 мс.
Размер потока : 63,1 Мбайт (4%)
Язык : Russian

Скриншоты




[Профиль] [ЛС]
Кто просматривает тему:

Форум Тема Автор Размер
Фильмы (HD Rips | 720p, 1080p) Горец / Highlander (1986) BDRip 1080p by msltel Russian Mafia 17.87 GB
Фильмы (HD Rips | 720p, 1080p) Горец / Highlander (1986) BDRip 1080p | P, A | Remastered Russian Mafia 12.77 GB
Фильмы (HD Rips | 720p, 1080p) Горец / Highlander (1986) BDRip 720p by msltel Russian Mafia 7.51 GB
Фильмы 2011 года Горец / Highlander (1986) BDRip-AVC by msltel Russian Mafia 5.09 GB
Фильмы (HD Rips | 720p, 1080p) Горец / Highlander (Рассел Малкэй / Russell Mulcahy) [1986 г., США, Боевик, фэнтези, приключения, BDRip 1080p] [Режиссерская версия / Director's Cut] MVO + 4x AVO (Гаврилов, Визгунов, Горчаков... Russian Mafia 9.51 GB
Фильмы 2011 года Горец / Highlander (Расселл Малкахи / Russell Mulcahy) [1986, США, Великобритания, фэнтези, боевик, триллер, приключения, BDRip] [Режиссерская версия / Director's cut] MVO (ОРТ) + Original Eng Russian Mafia 2.14 GB
Зарубежные сериалы Горец / Highlander - сериал [6 сезонов из 6] (1992-1998) TVRip BOSS 40.68 GB
Зарубежные сериалы Горец / Highlander / Сезон: 1 / Серии: 1-22 (22) + доп. материалы (Дэннис Берри) [1992-1993, боевик, драма, фантастика, BDRip 720p] DVO (Селена Интернешнл по заказу ОРТ) + Original Russian Mafia 40.83 GB
Показать сообщения:    

Текущее время: Сегодня 21:26

Часовой пояс: GMT



Вы не можете начинать темы
Вы не можете отвечать на сообщения
Вы не можете редактировать свои сообщения
Вы не можете удалять свои сообщения
Вы не можете голосовать в опросах
Вы не можете прикреплять файлы к сообщениям
Вы не можете скачивать файлы