Горец / Highlander / Сезон: 1 / Серии: 1-22 (22) + доп. материалы (Дэннис Берри) [1992-1993, боевик, драма, фантастика, BDRip 720p] DVO (Селена Интернешнл по заказу ОРТ) + Original

 
Автор Сообщение

Russian Mafia ®

Пол:

Стаж: 1 год 8 месяцев

Сообщений: 4257



Награды: 10 (Подробнее)

За внесенный вклад в развитие сайта (Количество: 1) Top Releaser 4 (Количество: 1) Top Releaser 5 (Количество: 1)
Торрент-статистика

Создавать темы 21-Мар-2016 09:16

[Цитировать]

Горец / Highlander
Год выпуска: 1992-1993
Страна: Канада, США, Франция
Жанр: боевик, драма, фантастика
Продолжительность: ~ 00:49:00
Перевод: Профессиональный (двухголосый закадровый) Селена Интернешнл по заказу ОРТ
Русские субтитры: нет
Режиссёр: Дэннис Берри
В ролях: Адриан Пол, Стэн Кирш, Александра Вандернот
Описание: Он родился 400 лет назад в горах Шотландии, он бессмертный , но не только он один... Так начинается один из самых лучших сериалов созданных на американском телевидении в фантастическом жанре. В центре сюжета история бессмертного Дункана МакЛауда на протяжении 400 лет, пытающегося, несмотря на непростые жизненные ситуации и постоянную опасность лишиться жизни от меча другого бессмертного, найти свою любовь и быть счастливым. Компанией производящей сериал были вложены фантастические средства на костюмы, инвентарь, шикарные натурные съемки. Сериал снимался не только в Америке, несколько сезонов были сняты во Франции. Но колоссальные затраты были окуплены с лихвой: сериал имел бешенный успех во всем мире и был закуплен для показа во всех странах, исключая страны ближнего Востока. Также "Горец" получил множество престижных теленаград, как в Америке, так и за рубежом. Не стоит говорить о том, что сериал стал лучшей работой американского актера Эдриана Пола, сделавшей его международной звездой и любимцем женщин всего мира.
Доп. информация:
Отличие от существующих раздач: отсутствие пробелов и лучшее качество русской звуковой дорожки.
Рип русской звуковой дорожки со спутникового вещания и сведение дорожки с BDRip-ом выполнено мной.
Качество: BDRip 720p
Формат: MKV
Видео кодек: H.264
Аудио кодек: AC3
Видео: H.264, 944x720 (4:3), 23.976 fps, ~4043 Kbps, 0.250 bit/pixel
Аудио: AC3, 48.0 KHz, 2 ch, 192 Kbps / ОРТ /
Аудио 2: AC3, 48.0 KHz, 3 ch, 224 Kbps / Оригинал /
Субтитры: отсутствуют

MediaInfo

Общее
Уникальный идентификатор : 230371103392557728030249474476559263585 (0xAD4FDC528B54C5FC80BDB2DDF58F6761)
Полное имя : Highlander.s01e01.720p.BDRip.The Gathering.ORT.mkv
Формат : Matroska
Версия формата : Version 1
Размер файла : 1,52 Гбайт
Продолжительность : 48 м.
Общий поток : 4464 Кбит/сек
Дата кодирования : UTC 2013-03-02 15:58:22
Программа кодирования : mkvmerge v2.4.2 ('Oh My God') built on Jan 18 2009 17:30:28
Библиотека кодирования : libebml v0.7.7 + libmatroska v0.8.1
Видео
Идентификатор : 1
Формат : AVC
Формат/Информация : Advanced Video Codec
Профиль формата : High@L4.1
Параметр CABAC формата : Да
Параметр ReFrames формата : 5 кадров
Идентификатор кодека : V_MPEG4/ISO/AVC
Продолжительность : 48 м.
Битрейт : 4043 Кбит/сек
Ширина : 944 пикселя
Высота : 720 пикселей
Соотношение сторон : 4:3
Частота кадров : 23,976 кадра/сек
Цветовое пространство : YUV
Субдискретизация насыщенности : 4:2:0
Битовая глубина : 8 бит
Тип развёртки : Прогрессивная
Бит/(Пиксели*Кадры) : 0.248
Размер потока : 1,35 Гбайт (89%)
Библиотека кодирования : x264 core 104 r1713 c276662
Настройки программы : cabac=1 / ref=5 / deblock=1:0:0 / analyse=0x3:0x133 / me=umh / subme=7 / psy=1 / psy_rd=1.00:0.00 / mixed_ref=1 / me_range=16 / chroma_me=1 / trellis=1 / 8x8dct=1 / cqm=0 / deadzone=21,11 / fast_pskip=1 / chroma_qp_offset=-2 / threads=12 / sliced_threads=0 / nr=0 / decimate=0 / interlaced=0 / constrained_intra=0 / bframes=3 / b_pyramid=2 / b_adapt=1 / b_bias=0 / direct=3 / weightb=1 / open_gop=0 / weightp=2 / keyint=240 / keyint_min=24 / scenecut=40 / intra_refresh=0 / rc_lookahead=30 / rc=2pass / mbtree=1 / bitrate=4043 / ratetol=1.0 / qcomp=0.60 / qpmin=10 / qpmax=51 / qpstep=4 / cplxblur=20.0 / qblur=0.5 / ip_ratio=1.40 / aq=1:1.00
Аудио #1
Идентификатор : 2
Формат : AC-3
Формат/Информация : Audio Coding 3
Расширение режима : CM (complete main)
Идентификатор кодека : A_AC3
Продолжительность : 48 м.
Вид битрейта : Постоянный
Битрейт : 192 Кбит/сек
Каналы : 2 канала
Расположение каналов : Front: L R
Частота : 48,0 КГц
Битовая глубина : 16 бит
Метод сжатия : С потерями
Размер потока : 67,0 Мбайт (4%)
Заголовок : ORT
Язык : Russian
Аудио #2
Идентификатор : 3
Формат : AC-3
Формат/Информация : Audio Coding 3
Расширение режима : CM (complete main)
Идентификатор кодека : A_AC3
Продолжительность : 48 м.
Вид битрейта : Постоянный
Битрейт : 224 Кбит/сек
Каналы : 3 канала
Расположение каналов : Front: L R, Side: C
Частота : 48,0 КГц
Битовая глубина : 16 бит
Метод сжатия : С потерями
Размер потока : 78,2 Мбайт (5%)
Заголовок : Original
Язык : English
Меню
00:00:00.000 : en:00:00:00.000
00:03:43.974 : en:00:03:43.974
00:12:12.849 : en:00:12:12.849
00:28:05.534 : en:00:28:05.534
00:37:35.203 : en:00:37:35.203

Скриншоты

[Профиль] [ЛС]
Кто просматривает тему:

Форум Тема Автор Размер
Фильмы (HD Rips | 720p, 1080p) Горец / Highlander (1986) BDRip 1080p by msltel Russian Mafia 17.87 GB
Фильмы (HD Rips | 720p, 1080p) Горец / Highlander (1986) BDRip 1080p | P, A | Remastered Russian Mafia 12.77 GB
Фильмы (HD Rips | 720p, 1080p) Горец / Highlander (1986) BDRip 720p by msltel Russian Mafia 7.51 GB
Фильмы 2011 года Горец / Highlander (1986) BDRip-AVC by msltel Russian Mafia 5.09 GB
Фильмы (HD Rips | 720p, 1080p) Горец / Highlander (Рассел Малкэй / Russell Mulcahy) [1986 г., США, Боевик, фэнтези, приключения, BDRip 1080p] [Режиссерская версия / Director's Cut] MVO + 4x AVO (Гаврилов, Визгунов, Горчаков... Russian Mafia 9.51 GB
Фильмы 2011 года Горец / Highlander (Расселл Малкахи / Russell Mulcahy) [1986, США, Великобритания, фэнтези, боевик, триллер, приключения, BDRip] [Режиссерская версия / Director's cut] MVO (ОРТ) + Original Eng Russian Mafia 2.14 GB
Зарубежные сериалы Горец / Highlander - сериал [6 сезонов из 6] (1992-1998) TVRip BOSS 40.68 GB
Зарубежные сериалы Горец / Highlander / Сезон: 1-6 / Серии: 1-119 из 119 (Дэннис Берри) [1992-1998, Боевиик, Фантастика, DVB] DVO (Селена Интернешнл) Russian Mafia 191.59 GB
Показать сообщения:    

Текущее время: Сегодня 08:17

Часовой пояс: GMT



Вы не можете начинать темы
Вы не можете отвечать на сообщения
Вы не можете редактировать свои сообщения
Вы не можете удалять свои сообщения
Вы не можете голосовать в опросах
Вы не можете прикреплять файлы к сообщениям
Вы не можете скачивать файлы