Горец / Highlander (1986) BDRip-AVC by msltel

 
Автор Сообщение

Russian Mafia ®

Пол:

Стаж: 1 год 8 месяцев

Сообщений: 4257



Награды: 10 (Подробнее)

Top Releaser 3 (Количество: 1) Mega Seeder 3 (Количество: 1) Mega Seeder 4 (Количество: 1)
Торрент-статистика

Создавать темы 21-Мар-2016 09:09

[Цитировать]

Название: Горец
Оригинальное название: Highlander
Год выпуска: 1986
Страна: США, Великобритания
Жанр: фэнтези, боевик, драма, приключения
Продолжительность: 01:56:39
Перевод: профессиональный многоголосый, авторский
Режиссёр: Расселл Малкэй
В ролях: Шон Коннери, Кланси Браун, Кристофер Ламберт, Селия Аймри, Шейла Гиш, Питер Дайамонд, Джеймс Космо, Хью Куарши, Кристофер Малкольм, Алан Норт, Джон Полито, Роксана Харт, Билли Хартмэн, Бити Эдни, Эдвард Уайли, Джон Кэсседи, Йен Реддингтон, Сион Тудор Оуэн, Дэмиен Лик, Гордон Стерн, Рон Берглас, Луис Гусс, Питер Бэнкс, Джеймс МакКенна, Тед Мэйнард, Энтони Маннино, Хелена Стивенс, Фрэнк Дюкс, Энтони Фуско, Йен Тайлер
Описание: Шотландец Коннор Маклауд в 1536 году был сражен в битве, но мистическим образом воскрес, и родной клан изгнал его. Учителем Маклауда стал испанский дворянин, открывший ему, что он принадлежит к бессмертной расе воинов, которых можно лишить жизни, лишь обезглавив мечом. Сражение между Маклаудом и его вечным врагом Курганом, начавшееся в Шотландии XVI века, продолжается в современном Манхеттене. От исхода этой битвы зависит судьба всех смертных. Это часть дуэли, продолжающейся веками...

Качество: BDRip AVC Сравнение с исходником
Формат: MKV
Видео: MPEG-4 AVC, 3020 Кбит/с, 1024х552, 24 кадра/с
Аудио 1: русский, AC3, 448 kbps, 6 ch, 48 kHz [профессиональный многоголосый, Супербит]
Аудио 2: русский, AC3, 448 kbps, 6 ch, 48 kHz [авторский, Андрей Гаврилов]
Аудио 3: русский, AC3, 448 kbps, 6 ch, 48 kHz [авторский, Юрий Живов]
Субтитры: русские (форсированные)
Внешние файлы:
Аудио: русский, AC3, 448 kbps, 6 ch, 48 kHz [профессиональный многоголосый, Video-BIZ]
Аудио: русский, AC3, 448 kbps, 6 ch, 48 kHz [авторский, Василий Горчаков]
Аудио: русский, AC3, 448 kbps, 6 ch, 48 kHz [авторский, Михаил Яроцкий (Киберпанк)]
Аудио: английский, AC3, 448 kbps, 6 ch, 48 kHz [оригинал]
Субтитры: русские
Субтитры: английские

Инфо-файл

Общее
Полное имя : D:VideoГорец.1986.BDRip.AVCГорец.1986.AVO.rus.В.Горчаков.ac3
Формат : AC-3
Формат/Информация : Audio Coding 3
Размер файла : 374 Мбайт
Продолжительность : 1 ч. 56 м.
Режим общего битрейта : Постоянный
Общий поток : 448 Кбит/сек
Аудио
Формат : AC-3
Формат/Информация : Audio Coding 3
Расширение режима : CM (complete main)
Параметр Endianness формата : Big
Продолжительность : 1 ч. 56 м.
Вид битрейта : Постоянный
Битрейт : 448 Кбит/сек
Каналы : 6 каналов
Расположение каналов : Front: L C R, Side: L R, LFE
Частота : 48,0 КГц
Битовая глубина : 16 бит
Метод сжатия : С потерями
Размер потока : 374 Мбайт (100%)
Общее
Полное имя : D:VideoГорец.1986.BDRip.AVCГорец.1986.AVO.rus.М.Яроцкий (Киберпанк).ac3
Формат : AC-3
Формат/Информация : Audio Coding 3
Размер файла : 374 Мбайт
Продолжительность : 1 ч. 56 м.
Режим общего битрейта : Постоянный
Общий поток : 448 Кбит/сек
Аудио
Формат : AC-3
Формат/Информация : Audio Coding 3
Расширение режима : CM (complete main)
Параметр Endianness формата : Big
Продолжительность : 1 ч. 56 м.
Вид битрейта : Постоянный
Битрейт : 448 Кбит/сек
Каналы : 6 каналов
Расположение каналов : Front: L C R, Side: L R, LFE
Частота : 48,0 КГц
Битовая глубина : 16 бит
Метод сжатия : С потерями
Размер потока : 374 Мбайт (100%)
Общее
Уникальный идентификатор : 185273261301081236193360434174454938456 (0x8B625509F8B588BCB2FAABAD3C303B58)
Полное имя : D:VideoГорец.1986.BDRip.AVCГорец.1986.BDRip.AVC.mkv
Формат : Matroska
Версия формата : Version 4 / Version 2
Размер файла : 3,63 Гбайт
Продолжительность : 1 ч. 56 м.
Общий поток : 4453 Кбит/сек
Название фильма : BDRip -- STarankov
Дата кодирования : UTC 2015-07-13 02:46:11
Программа кодирования : mkvmerge v7.9.0 ('Birds') 64bit
Библиотека кодирования : libebml v1.3.1 + libmatroska v1.4.2
DURATION : 00:22:56.874000000
NUMBER_OF_FRAMES : 15
NUMBER_OF_BYTES : 606
_STATISTICS_WRITING_APP : mkvmerge v7.9.0 ('Birds') 64bit
_STATISTICS_WRITING_DATE_UTC : 2015-07-13 02:46:11
_STATISTICS_TAGS : BPS DURATION NUMBER_OF_FRAMES NUMBER_OF_BYTES
Видео
Идентификатор : 1
Формат : AVC
Формат/Информация : Advanced Video Codec
Профиль формата : High@L4.1
Параметр CABAC формата : Да
Параметр ReFrames формата : 9 кадров
Идентификатор кодека : V_MPEG4/ISO/AVC
Продолжительность : 1 ч. 56 м.
Битрейт : 3020 Кбит/сек
Ширина : 1024 пикселя
Высота : 552 пикселя
Соотношение сторон : 1,85:1
Режим частоты кадров : Постоянный
Частота кадров : 24,000 кадра/сек
Цветовое пространство : YUV
Субдискретизация насыщенности : 4:2:0
Битовая глубина : 8 бит
Тип развёртки : Прогрессивная
Бит/(Пиксели*Кадры) : 0.223
Размер потока : 2,46 Гбайт (68%)
Библиотека кодирования : x264 core 146 r2538 121396c
Настройки программы : cabac=1 / ref=9 / deblock=1:-2:-2 / analyse=0x3:0x113 / me=umh / subme=10 / psy=1 / psy_rd=1.00:0.15 / mixed_ref=1 / me_range=32 / chroma_me=1 / trellis=2 / 8x8dct=1 / cqm=0 / deadzone=21,11 / fast_pskip=1 / chroma_qp_offset=-3 / threads=6 / lookahead_threads=1 / sliced_threads=0 / nr=0 / decimate=1 / interlaced=0 / bluray_compat=0 / constrained_intra=0 / bframes=8 / b_pyramid=2 / b_adapt=2 / b_bias=0 / direct=1 / weightb=1 / open_gop=0 / weightp=2 / keyint=230 / keyint_min=23 / scenecut=40 / intra_refresh=0 / rc_lookahead=40 / rc=crf / mbtree=0 / crf=21.0 / qcomp=0.60 / qpmin=0 / qpmax=69 / qpstep=4 / vbv_maxrate=40000 / vbv_bufsize=50000 / crf_max=0.0 / nal_hrd=none / filler=0 / ip_ratio=1.40 / pb_ratio=1.30 / aq=1:1.00
Язык : English
Default : Да
Forced : Нет
DURATION : 01:56:39.042000000
NUMBER_OF_FRAMES : 167977
NUMBER_OF_BYTES : 2717684203
_STATISTICS_WRITING_APP : mkvmerge v7.9.0 ('Birds') 64bit
_STATISTICS_WRITING_DATE_UTC : 2015-07-13 02:46:11
_STATISTICS_TAGS : BPS DURATION NUMBER_OF_FRAMES NUMBER_OF_BYTES
Аудио #1
Идентификатор : 2
Формат : AC-3
Формат/Информация : Audio Coding 3
Расширение режима : CM (complete main)
Параметр Endianness формата : Big
Идентификатор кодека : A_AC3
Продолжительность : 1 ч. 56 м.
Вид битрейта : Постоянный
Битрейт : 448 Кбит/сек
Каналы : 6 каналов
Расположение каналов : Front: L C R, Side: L R, LFE
Частота : 48,0 КГц
Битовая глубина : 16 бит
Метод сжатия : С потерями
Размер потока : 374 Мбайт (10%)
Заголовок : MVO (Супербит)
Язык : Russian
Default : Да
Forced : Нет
Аудио #2
Идентификатор : 3
Формат : AC-3
Формат/Информация : Audio Coding 3
Расширение режима : CM (complete main)
Параметр Endianness формата : Big
Идентификатор кодека : A_AC3
Продолжительность : 1 ч. 56 м.
Вид битрейта : Постоянный
Битрейт : 448 Кбит/сек
Каналы : 6 каналов
Расположение каналов : Front: L C R, Side: L R, LFE
Частота : 48,0 КГц
Битовая глубина : 16 бит
Метод сжатия : С потерями
Размер потока : 374 Мбайт (10%)
Заголовок : AVO (Андрей Гаврилов)
Язык : Russian
Default : Нет
Forced : Нет
Аудио #3
Идентификатор : 4
Формат : AC-3
Формат/Информация : Audio Coding 3
Расширение режима : CM (complete main)
Параметр Endianness формата : Big
Идентификатор кодека : A_AC3
Продолжительность : 1 ч. 56 м.
Вид битрейта : Постоянный
Битрейт : 448 Кбит/сек
Каналы : 6 каналов
Расположение каналов : Front: L C R, Side: L R, LFE
Частота : 48,0 КГц
Битовая глубина : 16 бит
Метод сжатия : С потерями
Размер потока : 374 Мбайт (10%)
Заголовок : AVO (Юрий Живов)
Язык : Russian
Default : Нет
Forced : Нет
Текст
Идентификатор : 5
Формат : UTF-8
Идентификатор кодека : S_TEXT/UTF8
Идентификатор кодека/Информация : UTF-8 Plain Text
Заголовок : русский
Язык : Russian
Default : Да
Forced : Да
Общее
Полное имя : D:VideoГорец.1986.BDRip.AVCГорец.1986.eng.srt
Размер файла : 103 Кбайт
Общее
Полное имя : D:VideoГорец.1986.BDRip.AVCГорец.1986.MVO.rus.Video-BIZ.ac3
Формат : AC-3
Формат/Информация : Audio Coding 3
Размер файла : 374 Мбайт
Продолжительность : 1 ч. 56 м.
Режим общего битрейта : Постоянный
Общий поток : 448 Кбит/сек
Аудио
Формат : AC-3
Формат/Информация : Audio Coding 3
Расширение режима : CM (complete main)
Параметр Endianness формата : Big
Продолжительность : 1 ч. 56 м.
Вид битрейта : Постоянный
Битрейт : 448 Кбит/сек
Каналы : 6 каналов
Расположение каналов : Front: L C R, Side: L R, LFE
Частота : 48,0 КГц
Битовая глубина : 16 бит
Метод сжатия : С потерями
Размер потока : 374 Мбайт (100%)
Общее
Полное имя : D:VideoГорец.1986.BDRip.AVCГорец.1986.Original.eng.ac3
Формат : AC-3
Формат/Информация : Audio Coding 3
Размер файла : 374 Мбайт
Продолжительность : 1 ч. 56 м.
Режим общего битрейта : Постоянный
Общий поток : 448 Кбит/сек
Аудио
Формат : AC-3
Формат/Информация : Audio Coding 3
Расширение режима : CM (complete main)
Параметр Endianness формата : Big
Продолжительность : 1 ч. 56 м.
Вид битрейта : Постоянный
Битрейт : 448 Кбит/сек
Каналы : 6 каналов
Расположение каналов : Front: L C R, Side: L R, LFE
Частота : 48,0 КГц
Битовая глубина : 16 бит
Метод сжатия : С потерями
Размер потока : 374 Мбайт (100%)
Общее
Полное имя : D:VideoГорец.1986.BDRip.AVCГорец.1986.rus.srt
Размер файла : 100 Кбайт

Скриншоты

[Профиль] [ЛС]
Кто просматривает тему:

Форум Тема Автор Размер
Фильмы (HD Rips | 720p, 1080p) Горец / Highlander (1986) BDRip 1080p by msltel Russian Mafia 17.87 GB
Фильмы (HD Rips | 720p, 1080p) Горец / Highlander (1986) BDRip 1080p | P, A | Remastered Russian Mafia 12.77 GB
Фильмы (HD Rips | 720p, 1080p) Горец / Highlander (1986) BDRip 720p by msltel Russian Mafia 7.51 GB
Фильмы (HD Rips | 720p, 1080p) Горец / Highlander (Рассел Малкэй / Russell Mulcahy) [1986 г., США, Боевик, фэнтези, приключения, BDRip 1080p] [Режиссерская версия / Director's Cut] MVO + 4x AVO (Гаврилов, Визгунов, Горчаков... Russian Mafia 9.51 GB
Фильмы 2011 года Горец / Highlander (Расселл Малкахи / Russell Mulcahy) [1986, США, Великобритания, фэнтези, боевик, триллер, приключения, BDRip] [Режиссерская версия / Director's cut] MVO (ОРТ) + Original Eng Russian Mafia 2.14 GB
Зарубежные сериалы Горец / Highlander - сериал [6 сезонов из 6] (1992-1998) TVRip BOSS 40.68 GB
Зарубежные сериалы Горец / Highlander / Сезон: 1 / Серии: 1-22 (22) + доп. материалы (Дэннис Берри) [1992-1993, боевик, драма, фантастика, BDRip 720p] DVO (Селена Интернешнл по заказу ОРТ) + Original Russian Mafia 40.83 GB
Зарубежные сериалы Горец / Highlander / Сезон: 1-6 / Серии: 1-119 из 119 (Дэннис Берри) [1992-1998, Боевиик, Фантастика, DVB] DVO (Селена Интернешнл) Russian Mafia 191.59 GB
Показать сообщения:    

Текущее время: Сегодня 16:53

Часовой пояс: GMT



Вы не можете начинать темы
Вы не можете отвечать на сообщения
Вы не можете редактировать свои сообщения
Вы не можете удалять свои сообщения
Вы не можете голосовать в опросах
Вы не можете прикреплять файлы к сообщениям
Вы не можете скачивать файлы