Гордость / Pride (Мэттью Уорчас / Matthew Warchus) [2014, Великобритания, драма, комедия, HDRip] VO (PashaUp)

 
Автор Сообщение

TorrentFilm ®

Пол:

Стаж: 1 год 11 месяцев

Сообщений: 7741



Награды: Нет

Торрент-статистика

Создавать темы 07-Янв-2015 00:01

[Цитировать]

--Гордость / Pride--«Based on the inspirational true story»- Страна: Великобритания
Жанр: драма, комедия
Год выпуска: 2014
Продолжительность: 02:01:20-Перевод: Одноголосый закадровый PashaUp
Cубтитры: нет-Режиссер: Мэттью Уорчас / Matthew Warchus-В ролях: Бен Шнетцер, Абрам Руни, Джим МакМанус, Джордж МакКэй, Моника Долан, Мэттью Флинн, Эндрю Скотт, Джозеф Гилган, Фэй Марсей, Фредди Фокс
Описание: Действие фильма разворачивается в 1984 году, во время правления Маргарет Тэтчер и в разгар забастовки шахтеров. Картина расскажет о группе геев и лесбиянок, участвующих в лондонском гей-параде и принимающих решение собрать деньги в поддержку семей бастующих горняков. Когда же профсоюз шахтеров стесняется принять собранные средства из рук представителей нетрадиционной сексуальной ориентации, те не сдаются и отправляются на микроавтобусе в шахтерский поселок, находящийся в Уэльсе, чтобы лично...-|Сэмпл|IMDB|КиноПоиск|
-Качество видео: HDRip
Формат видео: AVI-Видео: 720x304 (2.37:1), 23.976 fps, XviD build 50 ~1984 kbps avg, 0.38 bit/pixel
Аудио: 48 kHz, AC3 Dolby Digital, 3/2 (L,C,R,l,r) + LFE ch, ~448 kbps

MediaInfo

Общее
Полное имя : F:\BD torrent\mytorrentsup\Pride.2014.L1.HDRip.2100MB.avi
Формат : AVI
Формат/Информация : Audio Video Interleave
Профиль формата : OpenDML
Размер файла : 2,05 Гбайт
Продолжительность : 2 ч. 0 м.
Общий поток : 2439 Кбит/сек
Программа кодирования : VirtualDubMod 1.5.10.2 (build 2540/release)
Библиотека кодирования : VirtualDubMod build 2540/release
Видео
Идентификатор : 0
Формат : MPEG-4 Visual
Профиль формата : Advanced Simple@L5
Параметр BVOP формата : 2
Параметр QPel формата : Нет
Параметр GMC формата : Без точки перехода
Параметр матрицы формата : Default (MPEG)
Идентификатор кодека : XVID
Идентификатор кодека/Подсказка : XviD
Продолжительность : 2 ч. 0 м.
Битрейт : 1979 Кбит/сек
Ширина : 720 пикселей
Высота : 304 пикселя
Соотношение сторон : 2,35:1
Частота кадров : 23,976 кадра/сек
Цветовое пространство : YUV
Субдискретизация насыщенности : 4:2:0
Битовая глубина : 8 бит
Тип развёртки : Прогрессивная
Метод сжатия : С потерями
Бит/(Пиксели*Кадры) : 0.377
Размер потока : 1,66 Гбайт (81%)
Библиотека кодирования : XviD 1.2.1 (UTC 2008-12-04)
Аудио
Идентификатор : 1
Формат : AC-3
Формат/Информация : Audio Coding 3
Расширение режима : CM (complete main)
Параметр Endianness формата : Big
Идентификатор кодека : 2000
Продолжительность : 2 ч. 0 м.
Вид битрейта : Постоянный
Битрейт : 448 Кбит/сек
Каналы : 6 каналов
Расположение каналов : Front: L C R, Side: L R, LFE
Частота : 48,0 КГц
Битовая глубина : 16 бит
Метод сжатия : С потерями
Размер потока : 386 Мбайт (18%)
Выравнивание : Разделение по промежуткам
Продолжительность промежутка : 42 мс. (1,00 видеокадр)
Время предзагрузки промежутка : 500 мс.

Скриншот c названием фильма

Скриншоты

[Профиль] [ЛС]
Показать сообщения:    

Текущее время: Сегодня 11:50

Часовой пояс: GMT



Вы не можете начинать темы
Вы не можете отвечать на сообщения
Вы не можете редактировать свои сообщения
Вы не можете удалять свои сообщения
Вы не можете голосовать в опросах
Вы не можете прикреплять файлы к сообщениям
Вы не можете скачивать файлы