Гордость и предубеждение и зомби / Pride and Prejudice and Zombies (2016) BDRip 720p | Лицензия

 
Автор Сообщение

достали все ®

Пол:

Стаж: 1 год 8 месяцев

Сообщений: 6542



Награды: 12 (Подробнее)

Mega Seeder 2 (Количество: 1) Mega Releaser 3 (Количество: 1) Mega Seeder 5 (Количество: 1)
Торрент-статистика

Создавать темы 22-Май-2016 03:07

[Цитировать]

Информация о фильме
Название: Гордость и предубеждение и зомби
Оригинальное название: Pride and Prejudice and Zombies
Год выхода: 2016
Жанр: Ужасы, боевик, мелодрама
Режиссер: Бёрр Стирс
В ролях: Лили Джеймс, Сэм Райли, Белла Хиткот, Элли Бамбер, Милли Брэйди, Сьюки Уотерхаус, Дуглас Бут, Сэлли Филлипс, Чарльз Дэнс, Джек Хьюстон, Лина Хиди, Мэтт Смит, Эмма Гринвелл, Эва Белл, Эшлин Лофтус, Чарли Энсон, Том Лоркан, Роберт Файф, Дэн Коэн, Николас Марчи
О фильме:
Начало XIX века. На одном из бесчисленных светских раутов Элизабет Беннет встречает любовь всей своей жизни - мистера Дарси. Между обуреваемыми тайными страстями пылкими сердцами стоят гордость истинного дворянина и предубеждение благовоспитанной особы. Их чувственный и пронизанный трагическими нотками, но в то же время преисполненный светлой грусти роман развивается на фоне заполонивших сердце британской нации армии живых мертвецов.

Страна: США, Великобритания
Продолжительность: 01:47:32
Перевод: Профессиональный (полное дублирование) [Лицензия]

Файл
Кодек: x264
Качество: BDRip 720p
Видео: 1280х534 (2.40:1), 23,976 fps, AVC (H.264), High@L4.1, ~4100 Kbps avg, 0.250 bit/pixel
Аудио #1: 48 kHz, AC3 Dolby Digital, 3/2 (L,C,R,l,r) + LFE ch, ~448.00 kbps avg | RUS
Аудио #2: 48 kHz, AC3 Dolby Digital, 3/2 (L,C,R,l,r) + LFE ch, ~448.00 kbps avg | ENG
Субтитры: Английские

MI

General
Unique ID : 241595917053006948730497996974698121533 (0xB5C1AE5D2FA8C0A799FCA336F1C1C93D)
Complete name : J:СборкаГордость и предубеждение и зомби. - Pride.And.Prejudice.And.Zombies.2016.BluRay.720p.x264.АС3.mkv
Format : Matroska
Format version : Version 4 / Version 2
File size : 3.76 GiB
Duration : 1h 47mn
Overall bit rate : 5 000 Kbps
Encoded date : UTC 2016-05-21 16:20:52
Writing application : mkvmerge v7.3.0 ('Nouages') 32bit built on Oct 22 2014 18:44:01
Writing library : libebml v1.3.0 + libmatroska v1.4.1
DURATION : 01:46:44.314000000
NUMBER_OF_FRAMES : 1293
NUMBER_OF_BYTES : 47040
_STATISTICS_WRITING_APP : mkvmerge v7.3.0 ('Nouages') 32bit built on Oct 22 2014 18:44:01
_STATISTICS_WRITING_DATE_UTC : 2016-05-21 16:20:52
_STATISTICS_TAGS : BPS DURATION NUMBER_OF_FRAMES NUMBER_OF_BYTES
Video #1
ID : 1
Format : AVC
Format/Info : Advanced Video Codec
Format profile : High@L4.1
Format settings, CABAC : Yes
Format settings, ReFrames : 12 frames
Codec ID : V_MPEG4/ISO/AVC
Duration : 1h 47mn
Bit rate : 4 100 Kbps
Width : 1 280 pixels
Height : 534 pixels
Display aspect ratio : 2.40:1
Frame rate mode : Constant
Frame rate : 23.976 fps
Color space : YUV
Chroma subsampling : 4:2:0
Bit depth : 8 bits
Scan type : Progressive
Bits/(Pixel*Frame) : 0.250
Stream size : 3.01 GiB (80%)
Writing library : x264 core 148 r2694 3b70645
Encoding settings : cabac=1 / ref=12 / deblock=1:-3:-3 / analyse=0x3:0x133 / me=umh / subme=10 / psy=1 / psy_rd=1.00:0.00 / mixed_ref=1 / me_range=48 / chroma_me=1 / trellis=2 / 8x8dct=1 / cqm=0 / deadzone=21,11 / fast_pskip=0 / chroma_qp_offset=-2 / threads=12 / lookahead_threads=2 / sliced_threads=0 / nr=0 / decimate=0 / interlaced=0 / bluray_compat=0 / constrained_intra=0 / bframes=8 / b_pyramid=2 / b_adapt=2 / b_bias=0 / direct=3 / weightb=1 / open_gop=0 / weightp=2 / keyint=240 / keyint_min=2 / scenecut=40 / intra_refresh=0 / rc_lookahead=0 / rc=2pass / mbtree=0 / bitrate=4100 / ratetol=1.0 / qcomp=0.70 / qpmin=0 / qpmax=69 / qpstep=4 / cplxblur=20.0 / qblur=0.5 / vbv_maxrate=50000 / vbv_bufsize=30000 / nal_hrd=none / filler=0 / ip_ratio=1.40 / pb_ratio=1.30 / aq=3:0.80
Default : Yes
Forced : No
DURATION : 01:47:32.446000000
NUMBER_OF_FRAMES : 154704
NUMBER_OF_BYTES : 3308261339
_STATISTICS_WRITING_APP : mkvmerge v7.3.0 ('Nouages') 32bit built on Oct 22 2014 18:44:01
_STATISTICS_WRITING_DATE_UTC : 2016-05-21 16:20:52
_STATISTICS_TAGS : BPS DURATION NUMBER_OF_FRAMES NUMBER_OF_BYTES
Audio #2
ID : 2
Format : AC-3
Format/Info : Audio Coding 3
Mode extension : CM (complete main)
Format settings, Endianness : Big
Codec ID : A_AC3
Duration : 1h 47mn
Bit rate mode : Constant
Bit rate : 448 Kbps
Channel(s) : 6 channels
Channel positions : Front: L C R, Side: L R, LFE
Sampling rate : 48.0 KHz
Bit depth : 16 bits
Compression mode : Lossy
Stream size : 345 MiB (9%)
Language : Russian
Default : Yes
Forced : No
Audio #3
ID : 3
Format : AC-3
Format/Info : Audio Coding 3
Mode extension : CM (complete main)
Format settings, Endianness : Big
Codec ID : A_AC3
Duration : 1h 47mn
Bit rate mode : Constant
Bit rate : 448 Kbps
Channel(s) : 6 channels
Channel positions : Front: L C R, Side: L R, LFE
Sampling rate : 48.0 KHz
Bit depth : 16 bits
Compression mode : Lossy
Stream size : 345 MiB (9%)
Language : English
Default : No
Forced : No
Text #4
ID : 4
Format : UTF-8
Codec ID : S_TEXT/UTF8
Codec ID/Info : UTF-8 Plain Text
Language : English
Default : Yes
Forced : No

Скриншоты

Раздача от:WOODWORKER
[Профиль] [ЛС]
Показать сообщения:    

Текущее время: Сегодня 08:30

Часовой пояс: GMT



Вы не можете начинать темы
Вы не можете отвечать на сообщения
Вы не можете редактировать свои сообщения
Вы не можете удалять свои сообщения
Вы не можете голосовать в опросах
Вы не можете прикреплять файлы к сообщениям
Вы не можете скачивать файлы