Гора / Dag (2012) WEB-DLRip 720p | LakeFilms

 
Author Message

BOSS ®

Gender:

Longevity: 5 years

Posts: 14191

Location: ODESSA



: 22 ()

Top Keeper 1 (1) Top Keeper 2 (1) Mega Releaser 1 (1)
Торрент-статистика

Post 11-Oct-2018 19:29

[Quote]

Название: Гора
Оригинальное название: Dag (The Mountain, Forgotten Soldiers)
Год выпуска: 2012
Жанр: Триллер, драма, приключения, военный
Выпущено: Турция, Mars Entertainment Grou
Режиссер: Алпер Каглар
В ролях: Чаглар Эртугрул, Уфук Байрактар, Месут Акуста, Дженгиз Джошкун, Гёзде Мутлуэр, Серкан Янар, Али Аксёз, Асуман Каракулукку
О фильме: Группа солдат, чинившая горную антенну, попала в засаду. В живых остались Бекир и Огуз, два противоположных по характеру бойца: один служит уже не первый год, второй пришел добровольно после учебы на историческом факультете, на пару месяцев. Тем не менее, в этом «походе за жизнь» среди зимних гор они узнают друг друга получше.


Техданные
Качество: WEB-DLRip (720p)
Видео: MPEG-4 AVC, 4 121 Кбит/с, 1280x720, 24.000 FPS
Аудио: AAC, 6 ch, 445 Кбит/с
Продолжительность: 01:26:30
Перевод: Любительский двухголосый закадровый
Присутствует реклама!

Скриншоты

MI

General
Unique ID : 82319992110357079933486158379199685691 (0x3DEE40F7E7459322D333DD24509AE43B)
Complete name : D:LakeFIlmsDag.2012.720p.WEB-DL.LakeFilms.mkv
Format : Matroska
Format version : Version 4
File size : 2.78 GiB
Duration : 1 h 26 min
Overall bit rate : 4 609 kb/s
Encoded date : UTC 2018-10-10 15:42:43
Writing application : Lavf57.71.100
Writing library : Lavf57.71.100
ErrorDetectionType : Per level 1
Video
ID : 1
Format : AVC
Format/Info : Advanced Video Codec
Format profile : Main@L3.1
Format settings : CABAC / 1 Ref Frames
Format settings, CABAC : Yes
Format settings, ReFrames : 1 frame
Format settings, GOP : M=1, N=25
Codec ID : V_MPEG4/ISO/AVC
Duration : 1 h 26 min
Bit rate mode : Constant
Bit rate : 4 121 kb/s
Width : 1 280 pixels
Height : 720 pixels
Display aspect ratio : 16:9
Frame rate mode : Constant
Frame rate : 24.000 FPS
Color space : YUV
Chroma subsampling : 4:2:0
Bit depth : 8 bits
Scan type : Progressive
Bits/(Pixel*Frame) : 0.186
Stream size : 2.58 GiB (93%)
Language : English
Default : Yes
Forced : No
Audio
ID : 2
Format : AAC LC
Format/Info : Advanced Audio Codec Low Complexity
Codec ID : A_AAC-2
Duration : 1 h 26 min
Bit rate : 445 kb/s
Channel(s) : 6 channels
Channel layout : C L R Ls Rs LFE
Sampling rate : 48.0 kHz
Frame rate : 46.875 FPS (1024 SPF)
Compression mode : Lossy
Stream size : 276 MiB (10%)
Language : English
Default : Yes
Forced : No
[Profile] [PM]
Display posts from previous:    

The time now is: Today 16:25

All times are GMT



You cannot post new topics in this forum
You cannot reply to topics in this forum
You cannot edit your posts in this forum
You cannot delete your posts in this forum
You cannot vote in polls in this forum
You cannot attach files in this forum
You cannot download files in this forum