Гора / Dag (2012) WEB-DLRip 1080p | LakeFilms

 
Author Message

BOSS ®

Gender:

Longevity: 4 years 9 months

Posts: 14123

Location: ODESSA



: 22 ()

Top Releaser 2 (1) Mega Seeder 2 (1) Top Seeder 2 (1)
Торрент-статистика

Post 11-Oct-2018 19:29

[Quote]

Название: Гора
Оригинальное название: Dag (The Mountain, Forgotten Soldiers)
Год выпуска: 2012
Жанр: Триллер, драма, приключения, военный
Выпущено: Турция, Mars Entertainment Grou
Режиссер: Алпер Каглар
В ролях: Чаглар Эртугрул, Уфук Байрактар, Месут Акуста, Дженгиз Джошкун, Гёзде Мутлуэр, Серкан Янар, Али Аксёз, Асуман Каракулукку
О фильме: Группа солдат, чинившая горную антенну, попала в засаду. В живых остались Бекир и Огуз, два противоположных по характеру бойца: один служит уже не первый год, второй пришел добровольно после учебы на историческом факультете, на пару месяцев. Тем не менее, в этом «походе за жизнь» среди зимних гор они узнают друг друга получше.


Техданные
Качество: WEB-DLRip (1080p)
Видео: MPEG-4 AVC, 4 269 Кбит/с, 1920x1080, 24.000 FPS
Аудио: AAC, 6 ch, 445 Кбит/с
Продолжительность: 01:26:30
Перевод: Любительский двухголосый закадровый
Присутствует реклама!

Скриншоты

MI

General
Unique ID : 237536623383359830298926389823278520676 (0xB2B3E3BBECE96BEBF8AA5F7918359964)
Complete name : D:LakeFIlmsDag.2012.1080p.WEB-DL.LakeFilms.mkv
Format : Matroska
Format version : Version 4
File size : 2.85 GiB
Duration : 1 h 26 min
Overall bit rate : 4 717 kb/s
Encoded date : UTC 2018-10-10 15:42:43
Writing application : mkvmerge v27.0.0 ('Metropolis') 64-bit
Writing library : libebml v1.3.6 + libmatroska v1.4.9
Video
ID : 1
Format : AVC
Format/Info : Advanced Video Codec
Format profile : Main@L4.1
Format settings : CABAC / 4 Ref Frames
Format settings, CABAC : Yes
Format settings, ReFrames : 4 frames
Codec ID : V_MPEG4/ISO/AVC
Duration : 1 h 26 min
Bit rate : 4 269 kb/s
Width : 1 920 pixels
Height : 1 080 pixels
Display aspect ratio : 16:9
Frame rate mode : Constant
Frame rate : 24.000 FPS
Color space : YUV
Chroma subsampling : 4:2:0
Bit depth : 8 bits
Scan type : Progressive
Bits/(Pixel*Frame) : 0.086
Stream size : 2.58 GiB (91%)
Language : English
Default : Yes
Forced : No
Color range : Limited
Color primaries : BT.709
Transfer characteristics : BT.709
Matrix coefficients : BT.709
Audio
ID : 2
Format : AAC LC
Format/Info : Advanced Audio Codec Low Complexity
Codec ID : A_AAC-2
Duration : 1 h 26 min
Bit rate : 445 kb/s
Channel(s) : 6 channels
Channel layout : C L R Ls Rs LFE
Sampling rate : 48.0 kHz
Frame rate : 46.875 FPS (1024 SPF)
Compression mode : Lossy
Stream size : 276 MiB (9%)
Language : English
Default : Yes
Forced : No
[Profile] [PM]
Display posts from previous:    

The time now is: Today 08:50

All times are GMT



You cannot post new topics in this forum
You cannot reply to topics in this forum
You cannot edit your posts in this forum
You cannot delete your posts in this forum
You cannot vote in polls in this forum
You cannot attach files in this forum
You cannot download files in this forum