Гора / Dag (2012) WEB-DLRip 1080p | LakeFilms

 
Автор Сообщение

BOSS ®

Пол:

Стаж: 4 года

Сообщений: 12092

Откуда: ODESSA



Награды: 22 (Подробнее)

Top Keeper 3 (Количество: 1) Top Releaser 4 (Количество: 1) Top Keeper 1 (Количество: 1)
Торрент-статистика

Создавать темы 11-Окт-2018 19:29

[Цитировать]

Название: Гора
Оригинальное название: Dag (The Mountain, Forgotten Soldiers)
Год выпуска: 2012
Жанр: Триллер, драма, приключения, военный
Выпущено: Турция, Mars Entertainment Grou
Режиссер: Алпер Каглар
В ролях: Чаглар Эртугрул, Уфук Байрактар, Месут Акуста, Дженгиз Джошкун, Гёзде Мутлуэр, Серкан Янар, Али Аксёз, Асуман Каракулукку
О фильме: Группа солдат, чинившая горную антенну, попала в засаду. В живых остались Бекир и Огуз, два противоположных по характеру бойца: один служит уже не первый год, второй пришел добровольно после учебы на историческом факультете, на пару месяцев. Тем не менее, в этом «походе за жизнь» среди зимних гор они узнают друг друга получше.


Техданные
Качество: WEB-DLRip (1080p)
Видео: MPEG-4 AVC, 4 269 Кбит/с, 1920x1080, 24.000 FPS
Аудио: AAC, 6 ch, 445 Кбит/с
Продолжительность: 01:26:30
Перевод: Любительский двухголосый закадровый
Присутствует реклама!

Скриншоты

MI

General
Unique ID : 237536623383359830298926389823278520676 (0xB2B3E3BBECE96BEBF8AA5F7918359964)
Complete name : D:LakeFIlmsDag.2012.1080p.WEB-DL.LakeFilms.mkv
Format : Matroska
Format version : Version 4
File size : 2.85 GiB
Duration : 1 h 26 min
Overall bit rate : 4 717 kb/s
Encoded date : UTC 2018-10-10 15:42:43
Writing application : mkvmerge v27.0.0 ('Metropolis') 64-bit
Writing library : libebml v1.3.6 + libmatroska v1.4.9
Video
ID : 1
Format : AVC
Format/Info : Advanced Video Codec
Format profile : Main@L4.1
Format settings : CABAC / 4 Ref Frames
Format settings, CABAC : Yes
Format settings, ReFrames : 4 frames
Codec ID : V_MPEG4/ISO/AVC
Duration : 1 h 26 min
Bit rate : 4 269 kb/s
Width : 1 920 pixels
Height : 1 080 pixels
Display aspect ratio : 16:9
Frame rate mode : Constant
Frame rate : 24.000 FPS
Color space : YUV
Chroma subsampling : 4:2:0
Bit depth : 8 bits
Scan type : Progressive
Bits/(Pixel*Frame) : 0.086
Stream size : 2.58 GiB (91%)
Language : English
Default : Yes
Forced : No
Color range : Limited
Color primaries : BT.709
Transfer characteristics : BT.709
Matrix coefficients : BT.709
Audio
ID : 2
Format : AAC LC
Format/Info : Advanced Audio Codec Low Complexity
Codec ID : A_AAC-2
Duration : 1 h 26 min
Bit rate : 445 kb/s
Channel(s) : 6 channels
Channel layout : C L R Ls Rs LFE
Sampling rate : 48.0 kHz
Frame rate : 46.875 FPS (1024 SPF)
Compression mode : Lossy
Stream size : 276 MiB (9%)
Language : English
Default : Yes
Forced : No
[Профиль] [ЛС]
Показать сообщения:    

Текущее время: Сегодня 00:46

Часовой пояс: GMT



Вы не можете начинать темы
Вы не можете отвечать на сообщения
Вы не можете редактировать свои сообщения
Вы не можете удалять свои сообщения
Вы не можете голосовать в опросах
Вы не можете прикреплять файлы к сообщениям
Вы не можете скачивать файлы