Гора самоцветов. Бессмертный (Михаил Алдашин) [2012, Анимационный фильм, DVDScreener]

 
Автор Сообщение

TorrentFilm ®

Пол:

Стаж: 2 года

Сообщений: 7741



Награды: Нет

Торрент-статистика

Создавать темы 03-Янв-2015 00:01

[Цитировать]

Гора самоцветов. Бессмертный
Страна: Россия
Жанр: Анимационный фильм
Продолжительность: 00:13:58
Год выпуска: 2012
Русские субтитры: нет
Режиссёр: Михаил Алдашин
Роли озвучивали: Юлия Рутберг
Описание: Дагестанская сказка, в которой главный герой, потеряв друга, отправляется на поиски города, где никто никогда не умирает.
Доп. информация: Лучший анимационный фильм Национальная премия кинокритики и кинопрессы, Москва (Россия), 2014
Гран-при Открытый фестиваль анимационного кино, Суздаль (Россия), 2013
Лучший анимационный фильм Премии «НИКА», Москва (Россия), 2013
Московский международный кинофестиваль (ММКФ), Москва (Россия), 2013
Международный кинофестиваль им. А. Тарковского 'Зеркало', Иваново (Россия), 2013
Фестиваль российского кино 'Окно в Европу', Выборг (Россия), 2013
Фестиваль отечественного кино ''Московская премьера'', Москва (Россия), 2013
Международный фестиваль фильмов для детей и молодежи в г. Злин, Злин (Чехия), 2013
Festival des Films de Russie et d'Ailleurs, Женева - Лозанна (Швейцария), 2013
Качество: DVDScreener
Формат: AVI
Видео: DIVX, 720x416, 25fps, 1614kbps
Аудио: MPEG Layer 3, 48kHz, 2ch, 192kbps
Субтитры: отсутствуют

Подробные технические данные

Полное имя : Бессмертный.aviФормат : AVIФормат/Информация : Audio Video InterleaveРазмер файла : 182 МбайтПродолжительность : 13 м.Общий поток : 1816 Кбит/секПрограмма кодирования : VirtualDubMod 1.5.10.3 | www.virtualdub-fr.org || (build 2550/release)Библиотека кодирования : VirtualDubMod build 2550/release
ВидеоИдентификатор : 0Формат : MPEG-4 VisualПрофиль формата : Advanced Simple@L5Параметр BVOP формата : 1Параметр QPel формата : НетПараметр GMC формата : Без точки переходаПараметр матрицы формата : Default (H.263)Идентификатор кодека : DIVXИдентификатор кодека/Информация : Project MayoИдентификатор кодека/Подсказка : DivX 4Продолжительность : 13 м.Битрейт : 1614 Кбит/секШирина : 720 пикселейВысота : 416 пикселейСоотношение сторон : 1,731Частота кадров : 25,000 кадров/секЦветовое пространство : YUVСубдискретизация насыщенности : 4:2:0Битовая глубина : 8 битТип развёртки : ПрогрессивнаяМетод сжатия : С потерямиБит/(Пиксели*Кадры) : 0.216Размер потока : 161 Мбайт (89%)Библиотека кодирования : XviD 1.2.1 (UTC 2008-12-04)
АудиоИдентификатор : 1Формат : MPEG AudioВерсия формата : Version 1Профиль формата : Layer 3Идентификатор кодека : 55Идентификатор кодека/Подсказка : MP3Продолжительность : 13 м.Вид битрейта : ПостоянныйБитрейт : 192 Кбит/секКаналы : 2 каналаЧастота : 48,0 КГцМетод сжатия : С потерямиРазмер потока : 19,2 Мбайт (11%)Выравнивание : Соединение по промежуткамПродолжительность промежутка : 40 мс. (1,00 видеокадр)Время предзагрузки промежутка : 504 мс.Библиотека кодирования : LAME3.99rНастройки программы : -m s -V 4 -q 0 -lowpass 18.6 -b 192

Скриншоты



[Профиль] [ЛС]
Кто просматривает тему:

Показать сообщения:    

Текущее время: Сегодня 02:45

Часовой пояс: GMT



Вы не можете начинать темы
Вы не можете отвечать на сообщения
Вы не можете редактировать свои сообщения
Вы не можете удалять свои сообщения
Вы не можете голосовать в опросах
Вы не можете прикреплять файлы к сообщениям
Вы не можете скачивать файлы