Гомо Эректус / Homo Erectus (Адам Рифкин / Adam Rifkin) [2007, США, комедия, BDRip-AVC] Dub

 
Автор Сообщение

TorrentFilm ®

Пол:

Стаж: 2 года

Сообщений: 7741



Награды: Нет

Торрент-статистика

Создавать темы 25-Апр-2015 00:04

[Цитировать]

Гомо Эректус / Homo Erectus- Страна: США
Жанр: комедия
Год выпуска: 2007
Продолжительность: 01:27:24
Перевод: Профессиональный (дублированный)
Cубтитры: нет
Оригинальная аудиодорожка: нет-Режиссер: Адам Рифкин / Adam Rifkin
В ролях: Адам Рифкин, Эли Лартер, Хэйз МакАртур, Дэвид Кэрредин, Талия Шайр, Кэрол Олт, Гэри Бьюзи, Майлз Дагал, Джузеппе Эндрюс, Билл Тайри-Описание: Свалилась же на голову счастливого пещерного племени напасть в виде неандертальца-философа по имени Ишбо! Ну, не сидится ему спокойно в пещере и беготня за мамонтом совсем не вдохновляет. Ишбо мечтает о цивилизации, которую, впрочем, представляет весьма смутно. Однако это не мешает древнему новатору изобретать технические новинки для исстрадавшихся от его кулибинского таланта соплеменников. По его милости им приходится испытывать на себе первые модели зубных щеток, чайных ложек и этих ужасно неудобных трусов! А первый блин, как и положено, чаще всего получается комом!
-
-Качество видео: BDRip-AVC (исх. BDRemux 1080p)
Формат видео: MKV
Видео: x.264, 824x464, 2002 kbps, 23.976 fps, 0.218 b/p*f
Аудио: AC3, 48000 Hz, 384 kbps, 6 channels - Дубляж
-

Скриншоты



Резервные скриншоты




-

MediaInfo

Format : Matroska
Format version : Version 4 / Version 2
File size : 1.46 GiB
Duration : 1h 27mn
Overall bit rate : 2 388 Kbps
Movie name : Гомо Эректус / Homo Erectus (2007) BDRip-AVC
Encoded date : UTC 2015-02-10 13:30:07
Writing application : mkvmerge v7.5.0 ('Glass Culture') 32bit built on Jan 4 2015 16:37:25
Writing library : libebml v1.3.1 + libmatroska v1.4.2
Attachment : Yes
Video
ID : 1
Format : AVC
Format/Info : Advanced Video Codec
Format profile : High@L4.1
Format settings, CABAC : Yes
Format settings, ReFrames : 12 frames
Codec ID : V_MPEG4/ISO/AVC
Duration : 1h 27mn
Bit rate : 2 002 Kbps
Width : 824 pixels
Height : 464 pixels
Display aspect ratio : 16:9
Frame rate mode : Constant
Frame rate : 23.976 fps
Color space : YUV
Chroma subsampling : 4:2:0
Bit depth : 8 bits
Scan type : Progressive
Bits/(Pixel*Frame) : 0.218
Stream size : 1.19 GiB (82%)
Writing library : x264 core 144 r2525 40bb568
Encoding settings : cabac=1 / ref=12 / deblock=1:-1:-1 / analyse=0x3:0x133 / me=umh / subme=10 / psy=1 / psy_rd=1.00:0.00 / mixed_ref=1 / me_range=32 / chroma_me=1 / trellis=2 / 8x8dct=1 / cqm=0 / deadzone=21,11 / fast_pskip=0 / chroma_qp_offset=-2 / threads=6 / lookahead_threads=1 / sliced_threads=0 / nr=0 / decimate=1 / interlaced=0 / bluray_compat=0 / constrained_intra=0 / bframes=9 / b_pyramid=2 / b_adapt=2 / b_bias=0 / direct=3 / weightb=1 / open_gop=0 / weightp=2 / keyint=240 / keyint_min=23 / scenecut=40 / intra_refresh=0 / rc_lookahead=60 / rc=2pass / mbtree=0 / bitrate=2002 / ratetol=1.0 / qcomp=0.60 / qpmin=0 / qpmax=69 / qpstep=4 / cplxblur=20.0 / qblur=0.5 / vbv_maxrate=10000 / vbv_bufsize=15000 / nal_hrd=none / filler=0 / ip_ratio=1.30 / pb_ratio=1.30 / aq=1:1.00 / zones=119170,125743,b=0.3
Language : English
Default : Yes
Forced : No
Audio
ID : 2
Format : AC-3
Format/Info : Audio Coding 3
Mode extension : CM (complete main)
Format settings, Endianness : Big
Codec ID : A_AC3
Duration : 1h 27mn
Bit rate mode : Constant
Bit rate : 384 Kbps
Channel(s) : 6 channels
Channel positions : Front: L C R, Side: L R, LFE
Sampling rate : 48.0 KHz
Bit depth : 16 bits
Compression mode : Lossy
Stream size : 240 MiB (16%)
Title : DUB
Language : Russian
Default : Yes
Forced : No
Menu
00:00:00.000 : en:(01)00:00:00:000
00:08:29.342 : en:(02)00:08:29:342
00:12:58.234 : en:(03)00:12:58:234
00:21:35.294 : en:(04)00:21:35:294
00:26:48.606 : en:(05)00:26:48:606
00:38:26.887 : en:(06)00:38:26:887
00:45:31.311 : en:(07)00:45:31:311
00:54:45.031 : en:(08)00:54:45:031
00:59:01.829 : en:(09)00:59:01:829
01:07:56.197 : en:(10)01:07:56:197
01:14:09.778 : en:(11)01:14:09:778
01:21:09.613 : en:(12)01:21:09:613
01:22:51.883 : en:(13)01:22:51:883
Сравнениес раздачей http://torrentfilm.net/forum/viewtopic.php?t=3878341 http://screenshotcomparison.com/comparison/122850/picture:3
[Профиль] [ЛС]

Создавать темы 06-Авг-2015 22:35 (спустя 3 месяца 11 дней)

Топик был перенесен из форума Фильмы до 2014 года в форум Фильмы до 2012 года
sergej644
 
Кто просматривает тему:

Показать сообщения:    

Текущее время: Сегодня 15:40

Часовой пояс: GMT



Вы не можете начинать темы
Вы не можете отвечать на сообщения
Вы не можете редактировать свои сообщения
Вы не можете удалять свои сообщения
Вы не можете голосовать в опросах
Вы не можете прикреплять файлы к сообщениям
Вы не можете скачивать файлы