Гольфстрим под айсбергом (Евгений Пашкевич) [2011, Россия, Латвия, фэнтези, драма, HDTV 1080i] + Original Rus

 
Автор Сообщение

TorrentFilm ®

Пол:

Стаж: 1 год 11 месяцев

Сообщений: 7741



Награды: Нет

Торрент-статистика

Создавать темы 11-Сен-2015 00:06

[Цитировать]

Гольфстрим под айсбергом
Страна: Россия, Латвия
Жанр: фэнтези, драма
Год выпуска: 2011
Продолжительность: 02:00:07
Перевод: Не требуется
Cубтитры: нет
Оригинальная аудиодорожка: русский
Режиссер: Евгений Пашкевич
В ролях: Анна Азарова, Андрей Терентьев, Алла Юганова, Федор Черных, Дмитрий Волкострелов, Данила Козловский, Ольга Шепицкая, Вилле Хаапасало, Любомирас Лауцявичюс, Юрий Цурило
Описание: Киноальманах состоит из 3-х новелл, объединенных мифом о Лилит, первой жене Адама, упоминаемой в древних преданиях Востока, в Талмуде, каббалистике Средневековья. Автор задумал фильм как эротическую притчу о вековечном противостоянии Человека и Матери-природы, ненасытной в своей жажде рождать и уничтожать.
По легендам, Лилит была создана, как и Адам, из глины. В ссоре она покинула его, поэтому не запятнана первородным грехом и избежала проклятия. У нее нет души, она бессмертна. Она принимает любой облик, овладевает мужчинами против их воли и покидает, когда захочет, обрекая их на тоску и погибель. Что бы она ни делала, это не является ни Добром, ни Злом. Она — другого естества…
Сэмпл: https://yadi.sk/i/byC_F1YlivjoN

Тип релиза: HDTV 1080i
Контейнер: TS
Видео: AVC/H.264, PAL, 1920x1080 (16:9), 10,4 Мбит/сек, 25.000 fps
Аудио 1: русский, MP2, 2ch, 48,0 КГц, 192 Кбит/сек
Аудио 2: русский, AC3, 6ch, 48,0 КГц, 448 Кбит/сек

MediaInfo

Общее
Идентификатор : 1 (0x1)
Полное имя : F:\раздачи\Гольфстрим под айсбергом.ts
Формат : MPEG-TS
Размер файла : 9,79 Гбайт
Продолжительность : 2 ч. 0 м.
Режим общего битрейта : Переменный
Общий поток : 11,7 Мбит/сек
Видео
Идентификатор : 3551 (0xDDF)
Идентификатор меню : 1 (0x1)
Формат : AVC
Формат/Информация : Advanced Video Codec
Профиль формата : Main@L4.0
Параметр CABAC формата : Да
Параметр ReFrames формата : 3 кадра
Идентификатор кодека : 27
Продолжительность : 2 ч. 0 м.
Битрейт : 10,4 Мбит/сек
Ширина : 1920 пикселей
Высота : 1080 пикселей
Соотношение сторон : 16:9
Частота кадров : 25,000 кадров/сек
Стандарт вещания : Component
Цветовое пространство : YUV
Субдискретизация насыщенности : 4:2:0
Битовая глубина : 8 бит
Тип развёртки : Чересстрочная
Порядок развёртки : Верхнее поле первое
Бит/(Пиксели*Кадры) : 0.201
Размер потока : 8,76 Гбайт (90%)
Основные цвета : BT.709
Характеристики трансфера : BT.709
Коэффициенты матрицы : BT.709
colour_range : Limited
Аудио #1
Идентификатор : 3552 (0xDE0)
Идентификатор меню : 1 (0x1)
Формат : MPEG Audio
Версия формата : Version 1
Профиль формата : Layer 2
Идентификатор кодека : 3
Продолжительность : 2 ч. 0 м.
Вид битрейта : Постоянный
Битрейт : 192 Кбит/сек
Каналы : 2 канала
Частота : 48,0 КГц
Метод сжатия : С потерями
Размер потока : 165 Мбайт (2%)
Язык : Russian
Аудио #2
Идентификатор : 3553 (0xDE1)
Идентификатор меню : 1 (0x1)
Формат : AC-3
Формат/Информация : Audio Coding 3
Расширение режима : CM (complete main)
Параметр Endianness формата : Big
Идентификатор кодека : 6
Продолжительность : 2 ч. 0 м.
Вид битрейта : Постоянный
Битрейт : 448 Кбит/сек
Каналы : 6 каналов
Расположение каналов : Front: L C R, Side: L R, LFE
Частота : 48,0 КГц
Битовая глубина : 16 бит
Метод сжатия : С потерями
Размер потока : 385 Мбайт (4%)
Язык : Russian

Скриншот с названием фильма

Скриншоты

[Профиль] [ЛС]
Показать сообщения:    

Текущее время: Сегодня 00:38

Часовой пояс: GMT



Вы не можете начинать темы
Вы не можете отвечать на сообщения
Вы не можете редактировать свои сообщения
Вы не можете удалять свои сообщения
Вы не можете голосовать в опросах
Вы не можете прикреплять файлы к сообщениям
Вы не можете скачивать файлы