Голый барабанщик / The Rocker (Питер Каттанео / Peter Cattaneo) [2008, США, комедия, музыка, BDRip-AVC] Dub (R5) + Original (Eng) + Subs (Rus, Eng)

 
Автор Сообщение

TorrentFilm ®

Пол:

Стаж: 2 года

Сообщений: 7741



Награды: Нет

Торрент-статистика

Создавать темы 01-Сен-2015 00:09

[Цитировать]

Голый барабанщик / The Rocker
«A comedy for the rockstar in all of us»
- Страна: США
Жанр: комедия, музыка
Год выпуска: 2008
Продолжительность: 01:42:17-Перевод: Профессиональный (дублированный) - R5
Оригинальная аудиодорожка: English
Cубтитры: Русский (полные), English (full + full SDH + full SDH Colored)
Навигация по главам: присутствует - 32 главы-Режиссер: Питер Каттанео / Peter Cattaneo
В ролях: Рэйн Уилсон, Кристина Эпплгейт, Тедди Гейджер, Джош Гад, Эмма Стоун, Джефф Гарлин, Джейн Линч, Джейсон Судейкис, Уилл Арнетт, Ховард Хессеман-Описание: Страстный барабанщик Роберт Фишмен по прозвищу Фиш жил только рок-н-роллом, был искренне предан своей группе «Везувий», которую он создал и из которой его так бесцеремонно вышвырнули, как только на горизонте замаячили реальные деньги.
20 лет спустя после крушения всех своих надежд и мечтаний, когда Фиш уже оставил надежду на возвращение, он узнает, что школьная рок-группа его племянника ищет барабанщика. Ребята дают ему возможность снова взобраться на трон короля рока и получить лавры, которые, как он всегда считал, он заслуживает.-
Download sample-Качество видео: BDRip-AVC | исх. BDRemux 1080p - thx: ilgizik01
Формат: MKV-Видео: 1 152x624 (1.85:1), 23.976 fps, H.264 ~4 400 kbps avg, 0.249 bit/pixel
Аудио №1: 48.0 kHz, AC3 Dolby Digital, 3/2 (L,C,R,l,r) + LFE ch, ~448 kbps | Профессиональный (дублированный) - R5
Аудио №2: 48.0 kHz, AC3 Dolby Digital, 3/2 (L,C,R,l,r) + LFE ch, ~448 kbps | English
Субтитры №1: Русские (полные) | *.srt
Субтитры №2: English (full) | *.srt
Субтитры №3: English (full SDH) | *.srt
Субтитры №4: English (full SDH Colored) | *.srt-

MediaInfo

General
Unique ID : 225611000702004702360000073599369021049 (0xA9BB1923DD99CE74BAF9A4D4C39F0679)
Complete name : D:\Фильмы\Рипы\The Rocker.2008.BDRip-AVC.eFK tRuAVC.mkv
Format : Matroska
Format version : Version 4 / Version 2
File size : 3.78 GiB
Duration : 1h 42mn
Overall bit rate : 5 289 Kbps
Movie name : Голый барабанщик / The Rocker (2008) - Release for rutracker
Encoded date : UTC 2015-08-28 20:10:40
Writing application : mkvmerge v7.6.0 ('Garden of Dreams') 64bit built on Feb 8 2015 13:04:34
Writing library : libebml v1.3.1 + libmatroska v1.4.2
Attachements : cover.png
DURATION : 01:40:25.977000000
NUMBER_OF_FRAMES : 1903
NUMBER_OF_BYTES : 87529
_STATISTICS_WRITING_APP : mkvmerge v7.6.0 ('Garden of Dreams') 64bit built on Feb 8 2015 13:04:34
_STATISTICS_WRITING_DATE_UT : 2015-08-28 20:10:40
_STATISTICS_TAGS : BPS DURATION NUMBER_OF_FRAMES NUMBER_OF_BYTES
Video
ID : 1
Format : AVC
Format/Info : Advanced Video Codec
Format profile : High@L4.1
Format settings, CABAC : Yes
Format settings, ReFrames : 10 frames
Codec ID : V_MPEG4/ISO/AVC
Duration : 1h 42mn
Bit rate : 4 287 Kbps
Width : 1 152 pixels
Height : 624 pixels
Display aspect ratio : 1.85:1
Frame rate mode : Constant
Frame rate : 23.976 fps
Color space : YUV
Chroma subsampling : 4:2:0
Bit depth : 8 bits
Scan type : Progressive
Bits/(Pixel*Frame) : 0.249
Stream size : 3.06 GiB (81%)
Title : eFK tRuAVC
Writing library : x264 core 148 r2579kMod 73ae2d1
Encoding settings : cabac=1 / ref=10 / deblock=1:-3:-3 / analyse=0x3:0x113 / me=umh / subme=11 / psy=1 / fade_compensate=0.00 / psy_rd=1.00:0.00 / mixed_ref=1 / me_range=48 / chroma_me=1 / trellis=2 / 8x8dct=1 / cqm=0 / deadzone=21,11 / fast_pskip=0 / chroma_qp_offset=-2 / threads=12 / lookahead_threads=3 / sliced_threads=0 / nr=0 / decimate=1 / interlaced=0 / bluray_compat=0 / constrained_intra=0 / fgo=0 / bframes=16 / b_pyramid=2 / b_adapt=2 / b_bias=0 / direct=3 / weightb=1 / open_gop=0 / weightp=2 / keyint=250 / keyint_min=23 / scenecut=40 / intra_refresh=0 / rc_lookahead=60 / rc=crf / mbtree=0 / crf=18.9000 / qcomp=0.65 / qpmin=0 / qpmax=69 / qpstep=4 / vbv_maxrate=50000 / vbv_bufsize=62500 / crf_max=0.0 / nal_hrd=none / filler=0 / ip_ratio=1.40 / pb_ratio=1.30 / aq=3:0.95
Language : English
Default : Yes
Forced : No
Color range : Limited
Color primaries : BT.709
Transfer characteristics : BT.709
Matrix coefficients : BT.709
DURATION : 01:42:17.757000000
NUMBER_OF_FRAMES : 147159
NUMBER_OF_BYTES : 3366753270
_STATISTICS_WRITING_APP : mkvmerge v7.6.0 ('Garden of Dreams') 64bit built on Feb 8 2015 13:04:34
_STATISTICS_WRITING_DATE_UT : 2015-08-28 20:10:40
_STATISTICS_TAGS : BPS DURATION NUMBER_OF_FRAMES NUMBER_OF_BYTES
Audio #1
ID : 2
Format : AC-3
Format/Info : Audio Coding 3
Mode extension : CM (complete main)
Format settings, Endianness : Big
Codec ID : A_AC3
Duration : 1h 42mn
Bit rate mode : Constant
Bit rate : 448 Kbps
Channel(s) : 6 channels
Channel positions : Front: L C R, Side: L R, LFE
Sampling rate : 48.0 KHz
Compression mode : Lossy
Stream size : 328 MiB (8%)
Title : Dub (R5)
Language : Russian
Default : Yes
Forced : No
Audio #2
ID : 3
Format : AC-3
Format/Info : Audio Coding 3
Mode extension : CM (complete main)
Format settings, Endianness : Big
Codec ID : A_AC3
Duration : 1h 42mn
Bit rate mode : Constant
Bit rate : 448 Kbps
Channel(s) : 6 channels
Channel positions : Front: L C R, Side: L R, LFE
Sampling rate : 48.0 KHz
Compression mode : Lossy
Stream size : 328 MiB (8%)
Language : English
Default : No
Forced : No
Text #1
ID : 4
Format : UTF-8
Codec ID : S_TEXT/UTF8
Codec ID/Info : UTF-8 Plain Text
Title : полные
Language : Russian
Default : No
Forced : No
Text #2
ID : 5
Format : UTF-8
Codec ID : S_TEXT/UTF8
Codec ID/Info : UTF-8 Plain Text
Title : full
Language : English
Default : No
Forced : No
Text #3
ID : 6
Format : UTF-8
Codec ID : S_TEXT/UTF8
Codec ID/Info : UTF-8 Plain Text
Title : full SDH
Language : English
Default : No
Forced : No
Text #4
ID : 7
Format : UTF-8
Codec ID : S_TEXT/UTF8
Codec ID/Info : UTF-8 Plain Text
Title : full SDH Colored
Language : English
Default : No
Forced : No
Menu
00:00:00.000 : :Chapter 01
00:03:18.907 : :Chapter 02
00:08:01.647 : :Chapter 03
00:10:09.608 : :Chapter 04
00:13:39.151 : :Chapter 05
00:18:18.347 : :Chapter 06
00:23:18.355 : :Chapter 07
00:27:44.621 : :Chapter 08
00:29:21.384 : :Chapter 09
00:31:35.643 : :Chapter 10
00:34:03.499 : :Chapter 11
00:38:02.863 : :Chapter 12
00:40:42.690 : :Chapter 13
00:42:28.754 : :Chapter 14
00:46:32.706 : :Chapter 15
00:48:21.899 : :Chapter 16
00:50:19.725 : :Chapter 17
00:53:17.485 : :Chapter 18
00:55:07.345 : :Chapter 19
00:58:04.147 : :Chapter 20
00:59:16.052 : :Chapter 21
01:04:22.066 : :Chapter 22
01:06:53.968 : :Chapter 23
01:08:34.360 : :Chapter 24
01:10:35.689 : :Chapter 25
01:11:46.927 : :Chapter 26
01:16:14.611 : :Chapter 27
01:21:11.867 : :Chapter 28
01:25:42.929 : :Chapter 29
01:29:44.962 : :Chapter 30
01:32:49.313 : :Chapter 31
01:37:43.274 : :Chapter 32

x264 log

x264 [info]: frame I:1385 Avg QP:17.64 size:106502
x264 [info]: frame P:30791 Avg QP:19.41 size: 43154
x264 [info]: frame B:114983 Avg QP:21.33 size: 16441
x264 [info]: consecutive B-frames: 1.8% 2.7% 5.3% 22.7% 18.6% 35.9% 6.2% 2.4% 1.6% 0.8% 0.5% 0.6% 0.2% 0.3% 0.1% 0.1% 0.2%
x264 [info]: mb I I16..4: 4.0% 77.8% 18.2%
x264 [info]: mb P I16..4: 0.6% 11.3% 1.4% P16..4: 30.2% 36.2% 14.1% 0.0% 0.0% skip: 6.2%
x264 [info]: mb B I16..4: 0.1% 1.3% 0.1% B16..8: 35.6% 20.4% 4.5% direct: 5.8% skip:32.2% L0:44.6% L1:43.1% BI:12.4%
x264 [info]: 8x8 transform intra:83.9% inter:58.2%
x264 [info]: direct mvs spatial:99.8% temporal:0.2%
x264 [info]: coded y,uvDC,uvAC intra: 91.8% 93.6% 84.2% inter: 29.7% 26.9% 11.4%
x264 [info]: i16 v,h,dc,p: 50% 15% 7% 28%
x264 [info]: i8 v,h,dc,ddl,ddr,vr,hd,vl,hu: 8% 6% 9% 11% 14% 14% 13% 12% 13%
x264 [info]: i4 v,h,dc,ddl,ddr,vr,hd,vl,hu: 10% 7% 4% 9% 16% 15% 13% 12% 13%
x264 [info]: i8c dc,h,v,p: 50% 15% 16% 19%
x264 [info]: Weighted P-Frames: Y:4.5% UV:3.6%
x264 [info]: ref P L0: 41.7% 10.2% 19.1% 7.3% 6.4% 4.4% 4.1% 2.3% 2.3% 2.0% 0.2% 0.0%
x264 [info]: ref B L0: 65.5% 13.5% 7.6% 4.4% 3.1% 2.5% 2.1% 0.9% 0.4%
x264 [info]: ref B L1: 90.9% 9.1%
x264 [info]: kb/s:4388.25
x264 [total]: encoded 147159 frames, 6.50 fps, 4388.25 kb/s, duration 6:17:31.61

Comparison

Source

Encode
[Профиль] [ЛС]

Создавать темы 12-Июн-2016 08:50 (спустя 9 месяцев 11 дней)

Топик был перенесен из форума Фильмы 2011 года в форум Фильмы 2006-2008 года
Russian Mafia
 
Показать сообщения:    

Текущее время: Сегодня 18:56

Часовой пояс: GMT



Вы не можете начинать темы
Вы не можете отвечать на сообщения
Вы не можете редактировать свои сообщения
Вы не можете удалять свои сообщения
Вы не можете голосовать в опросах
Вы не можете прикреплять файлы к сообщениям
Вы не можете скачивать файлы