Голый барабанщик / The Rocker (Питер Каттанео / Peter Cattaneo) [2008 г., США, комедия, музыка, BDRip] Dub + Original Eng + Sub (Rus, Eng)

 
Автор Сообщение

TorrentFilm ®

Пол:

Стаж: 2 года

Сообщений: 7741



Награды: Нет

Торрент-статистика

Создавать темы 20-Авг-2015 00:10

[Цитировать]

-Голый барабанщик / The Rocker«A comedy for the rockstar in all of us» Страна: США
Студия: 21 Laps Entertainment, Fox Atomic
Жанр: комедия, музыка
Год выпуска: 2008
Продолжительность: 01:42:17-Перевод: Профессиональный (полное дублирование) R5
Оригинальная аудиодорожка: английская
Cубтитры: русские, английские
Режиссер: Питер Каттанео / Peter Cattaneo
В ролях: Рэйн Уилсон, Кристина Эпплгейт, Тедди Гейджер, Джош Гад, Эмма Стоун, Джефф Гарлин, Джейн Линч, Джейсон Судейкис, Уилл Арнетт, Ховард Хессеман
Описание: Страстный барабанщик Роберт Фишмен по прозвищу Фиш жил только рок-н-роллом, был искренне предан своей группе «Везувий», которую он создал и из которой его так бесцеремонно вышвырнули, как только на горизонте замаячили реальные деньги.
20 лет спустя после крушения всех своих надежд и мечтаний, когда Фиш уже оставил надежду на возвращение, он узнает, что школьная рок-группа его племянника ищет барабанщика. Ребята дают ему возможность снова взобраться на трон короля рока и получить лавры, которые, как он всегда считал, он заслуживает.-
Сэмпл: скачать-Релиз от -
Автор рипа: Elheym
Качество: BDRip (источник: / Blu-ray Custom [The.Rocker.2008.BD50.1080p.Custom.HDCLUB] / 1080p)
Контейнер: AVI
Видео: 704x384 (1.83:1), 23.976 fps, XviD build 67 ~2155 kbps avg, 0.33 bit/pixel
Аудио #1: Русский: AC3, 5.1, 48 kHz, ~448 Кбит/с | Профессиональный (полное дублирование) R5 |
Аудио #2: Английский: AC3, 5.1, 48 kHz, ~448 Кбит/с | Оригинал |
Субтитры: русские (полные), английские (полные, SDH, SDH цветные)
Размер: 2237.43 Mb (1/2 DVD)

MediaInfo

Полное имя : Golyj.barabanschik.2008.DUAL.BDRip.XviD.AC3.-HQCLUB.avi
Формат : AVI
Формат/Информация : Audio Video Interleave
Профиль формата : OpenDML
Размер файла : 2,18 Гбайт
Продолжительность : 1 ч. 42 м.
Общий поток : 3058 Кбит/сек
Название фильма : Голый барабанщик / The Rocker (2008) BDRip
Режиссёр : Elheym
Программа кодирования : VirtualDubMod 1.5.10.2 (build 2540/release)
Авторское право : HQCLUB
Примечание : 17.08.2015
Видео
Идентификатор : 0
Формат : MPEG-4 Visual
Профиль формата : Advanced Simple@L5
Параметр BVOP формата : 1
Параметр QPel формата : Нет
Параметр GMC формата : Без точки перехода
Параметр матрицы формата : Выборочная
Идентификатор кодека : XVID
Идентификатор кодека/Подсказка : XviD
Продолжительность : 1 ч. 42 м.
Битрейт : 2144 Кбит/сек
Ширина : 704 пикселя
Высота : 384 пикселя
Соотношение сторон : 1,85:1
Частота кадров : 23,976 кадра/сек
Цветовое пространство : YUV
Субдискретизация насыщенности : 4:2:0
Битовая глубина : 8 бит
Тип развёртки : Прогрессивная
Метод сжатия : С потерями
Бит/(Пиксели*Кадры) : 0.331
Размер потока : 1,53 Гбайт (70%)
Библиотека кодирования : XviD 67
Аудио #1
Идентификатор : 1
Формат : AC-3
Формат/Информация : Audio Coding 3
Расширение режима : CM (complete main)
Параметр Endianness формата : Big
Идентификатор кодека : 2000
Продолжительность : 1 ч. 42 м.
Вид битрейта : Постоянный
Битрейт : 448 Кбит/сек
Каналы : 6 каналов
Расположение каналов : Front: L C R, Side: L R, LFE
Частота : 48,0 КГц
Метод сжатия : С потерями
Размер потока : 328 Мбайт (15%)
Выравнивание : Разделение по промежуткам
Продолжительность промежутка : 42 мс. (1,00 видеокадр)
Время предзагрузки промежутка : 500 мс.
Аудио #2
Идентификатор : 2
Формат : AC-3
Формат/Информация : Audio Coding 3
Расширение режима : CM (complete main)
Параметр Endianness формата : Big
Идентификатор кодека : 2000
Продолжительность : 1 ч. 42 м.
Вид битрейта : Постоянный
Битрейт : 448 Кбит/сек
Каналы : 6 каналов
Расположение каналов : Front: L C R, Side: L R, LFE
Частота : 48,0 КГц
Метод сжатия : С потерями
Размер потока : 328 Мбайт (15%)
Выравнивание : Разделение по промежуткам
Продолжительность промежутка : 42 мс. (1,00 видеокадр)
Время предзагрузки промежутка : 500 мс.

Скриншоты

[Профиль] [ЛС]

Создавать темы 12-Июн-2016 08:50 (спустя 9 месяцев 23 дня)

Топик был перенесен из форума Фильмы 2011 года в форум Фильмы 2006-2008 года
Russian Mafia
 
Показать сообщения:    

Текущее время: Сегодня 03:21

Часовой пояс: GMT



Вы не можете начинать темы
Вы не можете отвечать на сообщения
Вы не можете редактировать свои сообщения
Вы не можете удалять свои сообщения
Вы не можете голосовать в опросах
Вы не можете прикреплять файлы к сообщениям
Вы не можете скачивать файлы