Голубь / Пижон / Le pigeon (Лоренцо Габриэль / Lorenzo Gabriele) [2010, Франция, Бельгия, комедия, SATRip] MVO (Кинопоказ)

 
Автор Сообщение

TorrentFilm ®

Пол:

Стаж: 2 года

Сообщений: 7741



Награды: Нет

Торрент-статистика

Создавать темы 19-Дек-2015 00:08

[Цитировать]

Голубь / Пижон / Le pigeon
Страна: Франция, Бельгия
Жанр: комедия
Год выпуска: 2010
Продолжительность: 01:30:56
Перевод: Профессиональный (многоголосый закадровый) Кинопоказ
Cубтитры: нет
Оригинальная аудиодорожка: нет
Режиссер: Лоренцо Габриэль / Lorenzo Gabriele
В ролях: Франсуа Морель
Тьерри Лермитт
Клер Кейм
Матиа Млекюз
Камилла Жапи
Жан-Мишель Нуари
Кристиана Бопп
Люси Лукас
Жан-Пьер Пернаут
Антуан Бланкфорт
Описание: Жерар решил подшутить над своим амбициозным другом-бизнесменом Жаном-Клодом Жарденом, пустив слух, что с ним желает познакомиться сам президент Франции. И у этого розыгрыша были весьма интересные последствия...
Сэмпл: http://multi-up.com/1079248
Качество видео: SATRip
Формат видео: AVI
Видео: MPEG4, XviD, 720x400 (16:9), 25.000 fps, 1 954 Kbps (0.271 bit/pixel)
Аудио: AC-3, 48.0 KHz, 2 ch, 192 Kbps, CBR

MediaInfo

Общее
Полное имя : N:\МОИ РАЗДАЧИ\Пижон.avi
Формат : AVI
Формат/Информация : Audio Video Interleave
Размер файла : 1,37 Гбайт
Продолжительность : 1 ч. 30 м.
Общий поток : 2156 Кбит/сек
Название фильма : Голубь / Пижон / Le pigeon (2010)
Программа кодирования : VirtualDubMod 1.5.10.2 (build 2540/release)
Библиотека кодирования : VirtualDubMod build 2540/release
Авторское право : miha2154
Видео
Идентификатор : 0
Формат : MPEG-4 Visual
Профиль формата : Advanced Simple@L5
Параметр BVOP формата : 1
Параметр QPel формата : Нет
Параметр GMC формата : Без точки перехода
Параметр матрицы формата : Выборочная
Идентификатор кодека : XVID
Идентификатор кодека/Подсказка : XviD
Продолжительность : 1 ч. 30 м.
Битрейт : 1954 Кбит/сек
Ширина : 720 пикселей
Высота : 400 пикселей
Соотношение сторон : 16:9
Частота кадров : 25,000 кадров/сек
Цветовое пространство : YUV
Субдискретизация насыщенности : 4:2:0
Битовая глубина : 8 бит
Тип развёртки : Прогрессивная
Метод сжатия : С потерями
Бит/(Пиксели*Кадры) : 0.271
Размер потока : 1,24 Гбайт (91%)
Библиотека кодирования : XviD 65
Аудио
Идентификатор : 1
Формат : AC-3
Формат/Информация : Audio Coding 3
Расширение режима : CM (complete main)
Параметр Endianness формата : Big
Идентификатор кодека : 2000
Продолжительность : 1 ч. 30 м.
Вид битрейта : Постоянный
Битрейт : 192 Кбит/сек
Каналы : 2 канала
Расположение каналов : Front: L R
Частота : 48,0 КГц
Метод сжатия : С потерями
Размер потока : 125 Мбайт (9%)
Выравнивание : Разделение по промежуткам
Продолжительность промежутка : 40 мс. (1,00 видеокадр)
Время предзагрузки промежутка : 500 мс.
Заголовок : Профессиональный (многоголосый закадровый)

Скриншоты


[Профиль] [ЛС]

Создавать темы 12-Июн-2016 07:53 (спустя 5 месяцев 24 дня)

Топик был перенесен из форума Фильмы 2011 года в форум Фильмы 2010 года
Russian Mafia
 
Кто просматривает тему:

Форум Тема Автор Размер
Animal Planet Animal Planet: Голубые Багамы / Bahama Blue [серии 1-6 из 6] (Ian Herring) [2014 г., Документальный, природа, флора, фауна, HDTVRip 720p] skorpionN 9.49 GB
Отечественные мультфильмы Где ты, голубая Золушка? (Владимир Хмельницкий) [1971, СССР, Кукольный мультфильм, SATRip] TorrentFilm 170 MB
Фильмы (HD Rips | 720p, 1080p) Голубая Лагуна / The Blue Lagoon (1980) BDRip 1080p sergej644 7.76 GB
Фильмы 2011 года Голубая сталь / Blue Steel (1989) BDRip от New-Team | Р2, А sergej644 1.46 GB
Фильмы (HD Rips | 720p, 1080p) Голубка (Сергей Ольденбург-Свинцов) [2009, Россия, драма, комедия, HDTV 1080i] + Original Rus TorrentFilm 12.14 GB
Фильмы 2014 года Голубки разводятся / Le tourtereaux divorcent (Винченцо Марано / Vincenzo Marano) [2014, Франция, комедийная мелодрама, DVB] Original (Fre) + Sub (rus) TorrentFilm 2.01 GB
Фильмы (HD DVD, Blu-ray и BDRemux) Голубь сидел на ветке, размышляя о бытии / En duva satt på en gren och funderade på tillvaron (2014) BDRemux 1080р | Р Russian Mafia 33.35 GB
Фильмы 2014 года Голубь сидел на ветке, размышляя о бытии / En duva satt på en gren och funderade på tillvaron (2014) HDRip | P BOSS 1.46 GB
Показать сообщения:    

Текущее время: Сегодня 18:14

Часовой пояс: GMT



Вы не можете начинать темы
Вы не можете отвечать на сообщения
Вы не можете редактировать свои сообщения
Вы не можете удалять свои сообщения
Вы не можете голосовать в опросах
Вы не можете прикреплять файлы к сообщениям
Вы не можете скачивать файлы