Голубки разводятся / Le tourtereaux divorcent (Винченцо Марано / Vincenzo Marano) [2014, Франция, комедийная мелодрама, DVB] Original (Fre) + Sub (rus)

 
Автор Сообщение

TorrentFilm ®

Пол:

Стаж: 1 год 11 месяцев

Сообщений: 7741



Награды: Нет

Торрент-статистика

Создавать темы 29-Дек-2014 00:15

[Цитировать]

Голубки разводятся
Le tourtereaux divorcent- Страна: Франция
Жанр: комедийная мелодрама
Год выпуска: 2014
Продолжительность: 01:31:32
Перевод: Субтитры (перевод Éclair Group)
Cубтитры: русские
Оригинальная аудиодорожка: французский
Режиссер: Винченцо Марано / Vincenzo MaranoВ ролях: Клеманс Бретешер / Clémence Bretécher (Aurélie), Шарлотт де Тюркейм / Charlotte de Turckheim (Liliane), Даниель Руссо / Daniel Russo (Marcel), Жан-Шарль Шагашбанян / Jean-Charles Chagachbanian (Pierre), Себастьен Кнафо / Sébastien Knafo (Richard), Энцо Томазини / Enzo Tomasini (Geoffrey)
Описание: 30-летняя Орели решила вернуться к своим корням, в деревушку своего детства, чтобы вдали от городской жизни отдохнуть от собственных проблем, но становится свидетельницей развода родителей, вот уже 40 лет состоящих в браке и сообща держащих деревенский бар. К тому же и у младшего брата хватает личных проблем. Орели берется за разрешение головоломки: как же не допустить развода родителей…
Доп. информация: TV5MONDE DVB-S

Качество видео: DVB
Формат видео: MKV
Видео: MPEG Video 2, 704x576@1024x576 (16:9), 25 fps, ~2889 kbps avg, 0.285 bit/pixel
Аудио: Французский (MPEG Audio 2, 2 ch, 48 kHz, ~192.00 kbps avg)
Формат субтитров: hardsub (неотключаемые)

MediaInfo

ОбщееУникальный идентификатор : 187252399274829873433458126027196058871 (0x8CDF801325E1E3CFACDAB2288625CCF7)Полное имя : E:\My Torrents 2\[apreder]Le_tourtereaux_divorcent(2014)DVB.mkvФормат : MatroskaВерсия формата : Version 2Размер файла : 2,01 ГбайтПродолжительность : 1 ч. 31 м.Режим общего битрейта : ПеременныйОбщий поток : 3144 Кбит/секДата кодирования : UTC 2014-12-18 15:13:37Программа кодирования : mkvmerge v7.4.0 ('Circles') 64bit built on Dec 12 2014 12:19:56Библиотека кодирования : libebml v1.3.0 + libmatroska v1.4.1
ВидеоИдентификатор : 1Формат : MPEG VideoВерсия формата : Version 2Профиль формата : Main@MainПараметр BVOP формата : ДаПараметр матрицы формата : ВыборочнаяПараметр GOP формата : M=3, N=15Format_Settings_PictureStructure : FrameИдентификатор кодека : V_MPEG2Идентификатор кодека/Информация : MPEG 1 or 2 VideoПродолжительность : 1 ч. 31 м.Вид битрейта : ПеременныйБитрейт : 2889 Кбит/секШирина : 704 пикселяВысота : 576 пикселейСоотношение сторон : 16:9Режим частоты кадров : ПостоянныйЧастота кадров : 25,000 кадров/секСтандарт вещания : PALЦветовое пространство : YUVСубдискретизация насыщенности : 4:2:0Битовая глубина : 8 битТип развёртки : ЧересстрочнаяПорядок развёртки : Верхнее поле первоеМетод сжатия : С потерямиБит/(Пиксели*Кадры) : 0.285Временной код первого кадра : 00:00:00:00Оригинал временного кода : Group of pictures headerРазмер потока : 1,85 Гбайт (92%)Default : ДаForced : НетGop_OpenClosed_FirstFrame : Closed
АудиоИдентификатор : 2Формат : MPEG AudioВерсия формата : Version 1Профиль формата : Layer 2Идентификатор кодека : A_MPEG/L2Идентификатор кодека/Подсказка : MP2Продолжительность : 1 ч. 31 м.Вид битрейта : ПостоянныйБитрейт : 192 Кбит/секКаналы : 2 каналаЧастота : 48,0 КГцМетод сжатия : С потерямиРазмер потока : 126 Мбайт (6%)Язык : FrenchDefault : ДаForced : Нет

Скриншот c названием фильма

Скриншоты


Резервные скриншоты


-[1'995]
[Профиль] [ЛС]
Кто просматривает тему:

Форум Тема Автор Размер
Animal Planet Animal Planet: Голубые Багамы / Bahama Blue [серии 1-6 из 6] (Ian Herring) [2014 г., Документальный, природа, флора, фауна, HDTVRip 720p] skorpionN 9.49 GB
Отечественные мультфильмы Где ты, голубая Золушка? (Владимир Хмельницкий) [1971, СССР, Кукольный мультфильм, SATRip] TorrentFilm 170 MB
Фильмы (HD Rips | 720p, 1080p) Голубая Лагуна / The Blue Lagoon (1980) BDRip 1080p sergej644 7.76 GB
Фильмы 2011 года Голубая сталь / Blue Steel (1989) BDRip от New-Team | Р2, А sergej644 1.46 GB
Фильмы (HD Rips | 720p, 1080p) Голубка (Сергей Ольденбург-Свинцов) [2009, Россия, драма, комедия, HDTV 1080i] + Original Rus TorrentFilm 12.14 GB
Фильмы 2010 года Голубь / Пижон / Le pigeon (Лоренцо Габриэль / Lorenzo Gabriele) [2010, Франция, Бельгия, комедия, SATRip] MVO (Кинопоказ) TorrentFilm 1.37 GB
Фильмы (HD DVD, Blu-ray и BDRemux) Голубь сидел на ветке, размышляя о бытии / En duva satt på en gren och funderade på tillvaron (2014) BDRemux 1080р | Р Russian Mafia 33.35 GB
Фильмы 2014 года Голубь сидел на ветке, размышляя о бытии / En duva satt på en gren och funderade på tillvaron (2014) HDRip | P BOSS 1.46 GB
Показать сообщения:    

Текущее время: Сегодня 04:58

Часовой пояс: GMT



Вы не можете начинать темы
Вы не можете отвечать на сообщения
Вы не можете редактировать свои сообщения
Вы не можете удалять свои сообщения
Вы не можете голосовать в опросах
Вы не можете прикреплять файлы к сообщениям
Вы не можете скачивать файлы