Голубая планета / The Blue Planet (2001) BDRemux 1080p

 
Author Message

sergej644 ®

Gender:

Longevity: 8 years 6 months

Posts: 7321



: 10 ()

Top Seeder 5 (1) Top Seeder 3 (1) Mega Seeder 3 (1)
Торрент-статистика

Post 18-Nov-2019 00:27

[Quote]

--Голубая планета / The Blue Planet -
Название: Голубая планета
Оригинальное название: The Blue Planet
Год выхода: 2001
Жанр: Документальный, природа, путешествие, фауна
Режиссер: Аластер Фовергилл
В ролях: Пирс Броснан, Дэвид Аттенборо, Джейсон Робертс
Страна: Великобритания
Студия: BBC Worldwide
Продолжительность: 8 х ~ 00:51:00
Перевод: Профессиональный (одноголосый закадровый) - Николай Дроздов
-
Документальный сериал от BBC расскажет о различных и разнообразных формах жизни на нашей планете, связанных с морскими просторами. Несмотря на то, что вода занимает две трети нашей планеты, о глубинах океана мы знаем меньше, чем о поверхности Луны. От известного до непознанного - новый документальный сериал «Голубая планета» открывает нам всю красоту и очарование океана, поражая воображение многообразием его обитателей. Сериал «Голубая планета» - это всестороннее и наиболее полное исследование подводного мира. Использование новейших технологий и уникального оборудования для глубоководных съемок раскроют зрителю самые сокровенные тайны мирового океана и позволят увидеть редчайшие кадры из жизни его обитателей, о существовании которых мы могли ранее только догадываться.-Качество: BDRemux 1080p
Контейнер: MKV
Видео: MPEG-4 AVC, 1920x1080, VBR, 16:9, 23.6 Mbps, 23.976 (24000/1001) FPS
Аудио 1: Русский, DTS-HD Master Audio, 6 ch, 48.0 kHz, ~3300 Kbps
Аудио 2: Английский, DTS-HD Master Audio, 6 ch, 48.0 kHz, ~3300 Kbps
Субтитры: Русские (SRT), английские (PGS)
Доп. информация: Дорожка DTS-HD MA получена наложением выделенного голоса на центр декодированного DTS-HD MA.
-

1. Голубая планета / Ocean World

В первой серии показывается не только гигантская мощь и невероятный масштаб океанов, но и вся сложность устройства "голубой планеты", влияние физических и биологических факторов на жителей подводного мира, позволяющие понять, как зарождалась жизнь на планете.-

MediaInfo

General
Unique ID                   : 9464050168167238856591703200171789743 (0x71EB5B2EC69294564C8860668D38DAF)
Complete name               : I:\Video\The.Blue.Planet.2001.BluRay.Remux\The.Blue.Planet.E01.The.Blue.Planet.1080p.BluRay.Remux.mkv
Format                      : Matroska
Format version              : Version 4
File size                   : 10.8 GiB
Duration                    : 51 min 17 s
Overall bit rate mode       : Variable
Overall bit rate            : 30.2 Mb/s
Encoded date                : UTC 2018-11-26 14:03:32
Writing application         : mkvmerge v27.0.0 ('Metropolis') 64-bit
Writing library             : libebml v1.3.6 + libmatroska v1.4.9
Video
ID                          : 1
Format                      : AVC
Format/Info                 : Advanced Video Codec
Format profile              : High@L4.1
Format settings             : CABAC / 2 Ref Frames
Format settings, CABAC      : Yes
Format settings, ReFrames   : 2 frames
Codec ID                    : V_MPEG4/ISO/AVC
Duration                    : 51 min 17 s
Bit rate mode               : Variable
Bit rate                    : 23.6 Mb/s
Width                       : 1 920 pixels
Height                      : 1 080 pixels
Display aspect ratio        : 16:9
Frame rate mode             : Constant
Frame rate                  : 23.976 (24000/1001) FPS
Color space                 : YUV
Chroma subsampling          : 4:2:0
Bit depth                   : 8 bits
Scan type                   : Progressive
Bits/(Pixel*Frame)          : 0.474
Stream size                 : 8.45 GiB (78%)
Default                     : Yes
Forced                      : No
Audio #1
ID                          : 2
Format                      : DTS XLL
Format/Info                 : Digital Theater Systems
Commercial name             : DTS-HD Master Audio
Codec ID                    : A_DTS
Duration                    : 51 min 17 s
Bit rate mode               : Variable
Bit rate                    : 3 313 kb/s
Channel(s)                  : 6 channels
Channel layout              : C L R Ls Rs LFE
Sampling rate               : 48.0 kHz
Frame rate                  : 93.750 FPS (512 SPF)
Bit depth                   : 24 bits
Compression mode            : Lossless
Stream size                 : 1.19 GiB (11%)
Language                    : Russian
Default                     : Yes
Forced                      : No
Audio #2
ID                          : 3
Format                      : DTS XLL
Format/Info                 : Digital Theater Systems
Commercial name             : DTS-HD Master Audio
Codec ID                    : A_DTS
Duration                    : 51 min 17 s
Bit rate mode               : Variable
Bit rate                    : 3 273 kb/s
Channel(s)                  : 6 channels
Channel layout              : C L R Ls Rs LFE
Sampling rate               : 48.0 kHz
Frame rate                  : 93.750 FPS (512 SPF)
Bit depth                   : 24 bits
Compression mode            : Lossless
Stream size                 : 1.17 GiB (11%)
Language                    : English
Default                     : No
Forced                      : No
Text #1
ID                          : 4
Format                      : UTF-8
Codec ID                    : S_TEXT/UTF8
Codec ID/Info               : UTF-8 Plain Text
Duration                    : 49 min 11 s
Bit rate                    : 100 b/s
Count of elements           : 447
Stream size                 : 36.2 KiB (0%)
Language                    : Russian
Default                     : No
Forced                      : No
Text #2
ID                          : 5
Format                      : PGS
Codec ID                    : S_HDMV/PGS
Codec ID/Info               : Picture based subtitle format used on BDs/HD-DVDs
Duration                    : 49 min 3 s
Bit rate                    : 34.0 kb/s
Count of elements           : 970
Stream size                 : 11.9 MiB (0%)
Language                    : English
Default                     : No
Forced                      : No
Menu
00:00:00.000                : en:Chapter 1
00:08:27.674                : en:Chapter 2
00:15:39.939                : en:Chapter 3
00:22:31.308                : en:Chapter 4
00:29:34.940                : en:Chapter 5
00:37:46.389                : en:Chapter 6
00:45:59.799                : en:Chapter 7
00:49:52.281                : en:Chapter 8
-

2. Бездна / The Deep

Там внизу, на глубине многих километров, скрывается целый мир. Мир гигантских горных цепей, чудовищного давления и бесконечного холода. Мир вечной ночи и самых фантастических форм жизни на нашей планете. При помощи последних достижений технологии глубинной съемки зрители впервые получили возможность увидеть удивительных существ, ранее недоступных нашему взору.-

MediaInfo

General
Unique ID                   : 196096625302192668471898157620516889469 (0x9386D6158BF946F5E41A396B75B4237D)
Complete name               : I:\Video\The.Blue.Planet.2001.BluRay.Remux\The.Blue.Planet.E02.The.Deep.1080p.BluRay.Remux.mkv
Format                      : Matroska
Format version              : Version 4
File size                   : 10.7 GiB
Duration                    : 51 min 0 s
Overall bit rate mode       : Variable
Overall bit rate            : 30.1 Mb/s
Encoded date                : UTC 2018-11-26 14:11:40
Writing application         : mkvmerge v27.0.0 ('Metropolis') 64-bit
Writing library             : libebml v1.3.6 + libmatroska v1.4.9
Video
ID                          : 1
Format                      : AVC
Format/Info                 : Advanced Video Codec
Format profile              : High@L4.1
Format settings             : CABAC / 2 Ref Frames
Format settings, CABAC      : Yes
Format settings, ReFrames   : 2 frames
Codec ID                    : V_MPEG4/ISO/AVC
Duration                    : 51 min 0 s
Bit rate mode               : Variable
Bit rate                    : 23.6 Mb/s
Width                       : 1 920 pixels
Height                      : 1 080 pixels
Display aspect ratio        : 16:9
Frame rate mode             : Constant
Frame rate                  : 23.976 (24000/1001) FPS
Color space                 : YUV
Chroma subsampling          : 4:2:0
Bit depth                   : 8 bits
Scan type                   : Progressive
Bits/(Pixel*Frame)          : 0.475
Stream size                 : 8.42 GiB (79%)
Default                     : Yes
Forced                      : No
Audio #1
ID                          : 2
Format                      : DTS XLL
Format/Info                 : Digital Theater Systems
Commercial name             : DTS-HD Master Audio
Codec ID                    : A_DTS
Duration                    : 51 min 0 s
Bit rate mode               : Variable
Bit rate                    : 3 207 kb/s
Channel(s)                  : 6 channels
Channel layout              : C L R Ls Rs LFE
Sampling rate               : 48.0 kHz
Frame rate                  : 93.750 FPS (512 SPF)
Bit depth                   : 24 bits
Compression mode            : Lossless
Stream size                 : 1.14 GiB (11%)
Language                    : Russian
Default                     : Yes
Forced                      : No
Audio #2
ID                          : 3
Format                      : DTS XLL
Format/Info                 : Digital Theater Systems
Commercial name             : DTS-HD Master Audio
Codec ID                    : A_DTS
Duration                    : 51 min 0 s
Bit rate mode               : Variable
Bit rate                    : 3 175 kb/s
Channel(s)                  : 6 channels
Channel layout              : C L R Ls Rs LFE
Sampling rate               : 48.0 kHz
Frame rate                  : 93.750 FPS (512 SPF)
Bit depth                   : 24 bits
Compression mode            : Lossless
Stream size                 : 1.13 GiB (11%)
Language                    : English
Default                     : No
Forced                      : No
Text #1
ID                          : 4
Format                      : UTF-8
Codec ID                    : S_TEXT/UTF8
Codec ID/Info               : UTF-8 Plain Text
Duration                    : 49 min 29 s
Bit rate                    : 120 b/s
Count of elements           : 540
Stream size                 : 43.7 KiB (0%)
Language                    : Russian
Default                     : No
Forced                      : No
Text #2
ID                          : 5
Format                      : PGS
Codec ID                    : S_HDMV/PGS
Codec ID/Info               : Picture based subtitle format used on BDs/HD-DVDs
Duration                    : 49 min 18 s
Bit rate                    : 41.5 kb/s
Count of elements           : 1326
Stream size                 : 14.6 MiB (0%)
Language                    : English
Default                     : No
Forced                      : No
Menu
00:00:00.000                : en:Chapter 1
00:11:13.214                : en:Chapter 2
00:16:41.626                : en:Chapter 3
00:23:41.962                : en:Chapter 4
00:31:47.030                : en:Chapter 5
00:39:24.696                : en:Chapter 6
00:50:00.039                : en:Chapter 7
-

3. Открытый океан / Open Ocean

Бескрайний простор океана - до ближайшего берега не менее пятьсот километров. Сверху - палящее солнце. Внизу - бездонная глубина. Но для многих морских обитателей это безграничное водное пространство является привычной средой обитания.-

MediaInfo

General
Unique ID                   : 137795317317060812227736011700075195596 (0x67AA69AC10312F44D08B4D75B2AF6CCC)
Complete name               : I:\Video\The.Blue.Planet.2001.BluRay.Remux\The.Blue.Planet.E03.Open.Ocean.1080p.BluRay.Remux.mkv
Format                      : Matroska
Format version              : Version 4
File size                   : 10.7 GiB
Duration                    : 50 min 20 s
Overall bit rate mode       : Variable
Overall bit rate            : 30.3 Mb/s
Encoded date                : UTC 2018-11-26 14:19:50
Writing application         : mkvmerge v27.0.0 ('Metropolis') 64-bit
Writing library             : libebml v1.3.6 + libmatroska v1.4.9
Video
ID                          : 1
Format                      : AVC
Format/Info                 : Advanced Video Codec
Format profile              : High@L4.1
Format settings             : CABAC / 2 Ref Frames
Format settings, CABAC      : Yes
Format settings, ReFrames   : 2 frames
Codec ID                    : V_MPEG4/ISO/AVC
Duration                    : 50 min 20 s
Bit rate mode               : Variable
Bit rate                    : 23.7 Mb/s
Width                       : 1 920 pixels
Height                      : 1 080 pixels
Display aspect ratio        : 16:9
Frame rate mode             : Constant
Frame rate                  : 23.976 (24000/1001) FPS
Color space                 : YUV
Chroma subsampling          : 4:2:0
Bit depth                   : 8 bits
Scan type                   : Progressive
Bits/(Pixel*Frame)          : 0.476
Stream size                 : 8.33 GiB (78%)
Default                     : Yes
Forced                      : No
Audio #1
ID                          : 2
Format                      : DTS XLL
Format/Info                 : Digital Theater Systems
Commercial name             : DTS-HD Master Audio
Codec ID                    : A_DTS
Duration                    : 50 min 20 s
Bit rate mode               : Variable
Bit rate                    : 3 317 kb/s
Channel(s)                  : 6 channels
Channel layout              : C L R Ls Rs LFE
Sampling rate               : 48.0 kHz
Frame rate                  : 93.750 FPS (512 SPF)
Bit depth                   : 24 bits
Compression mode            : Lossless
Stream size                 : 1.17 GiB (11%)
Language                    : Russian
Default                     : Yes
Forced                      : No
Audio #2
ID                          : 3
Format                      : DTS XLL
Format/Info                 : Digital Theater Systems
Commercial name             : DTS-HD Master Audio
Codec ID                    : A_DTS
Duration                    : 50 min 20 s
Bit rate mode               : Variable
Bit rate                    : 3 288 kb/s
Channel(s)                  : 6 channels
Channel layout              : C L R Ls Rs LFE
Sampling rate               : 48.0 kHz
Frame rate                  : 93.750 FPS (512 SPF)
Bit depth                   : 24 bits
Compression mode            : Lossless
Stream size                 : 1.16 GiB (11%)
Language                    : English
Default                     : No
Forced                      : No
Text #1
ID                          : 4
Format                      : UTF-8
Codec ID                    : S_TEXT/UTF8
Codec ID/Info               : UTF-8 Plain Text
Duration                    : 48 min 56 s
Bit rate                    : 82 b/s
Count of elements           : 376
Stream size                 : 29.7 KiB (0%)
Language                    : Russian
Default                     : No
Forced                      : No
Text #2
ID                          : 5
Format                      : PGS
Codec ID                    : S_HDMV/PGS
Codec ID/Info               : Picture based subtitle format used on BDs/HD-DVDs
Duration                    : 48 min 49 s
Bit rate                    : 29.8 kb/s
Count of elements           : 862
Stream size                 : 10.4 MiB (0%)
Language                    : English
Default                     : No
Forced                      : No
Menu
00:00:00.000                : en:Chapter 1
00:08:13.076                : en:Chapter 2
00:14:55.561                : en:Chapter 3
00:22:52.162                : en:Chapter 4
00:30:06.471                : en:Chapter 5
00:37:33.501                : en:Chapter 6
00:44:38.551                : en:Chapter 7
00:49:26.797                : en:Chapter 8
-

4. Замерзшие моря / Frozen Seas

Суровые природные условия с сверхнизкие температуры оставляют мало шансов для выживания. Но даже в таких экстремальных условиях - при температуре воздуха -70 С, 10-балльных штормах с приливными волнами - жизнь существует!-

MediaInfo

General
Unique ID                   : 103720998708942380196982913026689790094 (0x4E07F00EE952C02C43BB1B10D502F08E)
Complete name               : I:\Video\The.Blue.Planet.2001.BluRay.Remux\The.Blue.Planet.E04.Frozen.Seas.1080p.BluRay.Remux.mkv
Format                      : Matroska
Format version              : Version 4
File size                   : 10.8 GiB
Duration                    : 50 min 53 s
Overall bit rate mode       : Variable
Overall bit rate            : 30.5 Mb/s
Encoded date                : UTC 2018-11-26 14:27:43
Writing application         : mkvmerge v27.0.0 ('Metropolis') 64-bit
Writing library             : libebml v1.3.6 + libmatroska v1.4.9
Video
ID                          : 1
Format                      : AVC
Format/Info                 : Advanced Video Codec
Format profile              : High@L4.1
Format settings             : CABAC / 2 Ref Frames
Format settings, CABAC      : Yes
Format settings, ReFrames   : 2 frames
Codec ID                    : V_MPEG4/ISO/AVC
Duration                    : 50 min 53 s
Bit rate mode               : Variable
Bit rate                    : 23.7 Mb/s
Width                       : 1 920 pixels
Height                      : 1 080 pixels
Display aspect ratio        : 16:9
Frame rate mode             : Constant
Frame rate                  : 23.976 (24000/1001) FPS
Color space                 : YUV
Chroma subsampling          : 4:2:0
Bit depth                   : 8 bits
Scan type                   : Progressive
Bits/(Pixel*Frame)          : 0.477
Stream size                 : 8.44 GiB (78%)
Default                     : Yes
Forced                      : No
Audio #1
ID                          : 2
Format                      : DTS XLL
Format/Info                 : Digital Theater Systems
Commercial name             : DTS-HD Master Audio
Codec ID                    : A_DTS
Duration                    : 50 min 53 s
Bit rate mode               : Variable
Bit rate                    : 3 373 kb/s
Channel(s)                  : 6 channels
Channel layout              : C L R Ls Rs LFE
Sampling rate               : 48.0 kHz
Frame rate                  : 93.750 FPS (512 SPF)
Bit depth                   : 24 bits
Compression mode            : Lossless
Stream size                 : 1.20 GiB (11%)
Language                    : Russian
Default                     : Yes
Forced                      : No
Audio #2
ID                          : 3
Format                      : DTS XLL
Format/Info                 : Digital Theater Systems
Commercial name             : DTS-HD Master Audio
Codec ID                    : A_DTS
Duration                    : 50 min 53 s
Bit rate mode               : Variable
Bit rate                    : 3 347 kb/s
Channel(s)                  : 6 channels
Channel layout              : C L R Ls Rs LFE
Sampling rate               : 48.0 kHz
Frame rate                  : 93.750 FPS (512 SPF)
Bit depth                   : 24 bits
Compression mode            : Lossless
Stream size                 : 1.19 GiB (11%)
Language                    : English
Default                     : No
Forced                      : No
Text #1
ID                          : 4
Format                      : UTF-8
Codec ID                    : S_TEXT/UTF8
Codec ID/Info               : UTF-8 Plain Text
Duration                    : 49 min 27 s
Bit rate                    : 81 b/s
Count of elements           : 372
Stream size                 : 29.6 KiB (0%)
Language                    : Russian
Default                     : No
Forced                      : No
Text #2
ID                          : 5
Format                      : PGS
Codec ID                    : S_HDMV/PGS
Codec ID/Info               : Picture based subtitle format used on BDs/HD-DVDs
Duration                    : 49 min 7 s
Bit rate                    : 28.4 kb/s
Count of elements           : 924
Stream size                 : 10.00 MiB (0%)
Language                    : English
Default                     : No
Forced                      : No
Menu
00:00:00.000                : en:Chapter 1
00:08:59.372                : en:Chapter 2
00:16:50.593                : en:Chapter 3
00:24:06.153                : en:Chapter 4
00:31:02.819                : en:Chapter 5
00:37:46.639                : en:Chapter 6
00:44:43.806                : en:Chapter 7
00:49:59.830                : en:Chapter 8
-

5. Сезонные моря / Seasonal Seas

Моря, граничащие с территориями с умеренным климатом, где погода меняется в течении всего года, называются сезонными. Смена сезонов оказывает огромное влияние на подводный мир, в первую очередь из-за изменений силы солнечных лучей, достигающих поверхности воды. Отличительной особенностью этих морей является обилие многомиллионных колоний планктона, являющегося основным кормом для огромного количества морских обитателей. Благодаря этому сезонные моря считаются самыми "густонаселенными" на планете.-

MediaInfo

General
Unique ID                   : 41001352901098165945836013273206593096 (0x1ED892C5D6693D3EDFBC4B6010419648)
Complete name               : I:\Video\The.Blue.Planet.2001.BluRay.Remux\The.Blue.Planet.E05.Seasonal.Seas.1080p.BluRay.Remux.mkv
Format                      : Matroska
Format version              : Version 4
File size                   : 10.9 GiB
Duration                    : 50 min 48 s
Overall bit rate mode       : Variable
Overall bit rate            : 30.6 Mb/s
Encoded date                : UTC 2018-11-26 14:36:44
Writing application         : mkvmerge v27.0.0 ('Metropolis') 64-bit
Writing library             : libebml v1.3.6 + libmatroska v1.4.9
Video
ID                          : 1
Format                      : AVC
Format/Info                 : Advanced Video Codec
Format profile              : High@L4.1
Format settings             : CABAC / 2 Ref Frames
Format settings, CABAC      : Yes
Format settings, ReFrames   : 2 frames
Codec ID                    : V_MPEG4/ISO/AVC
Duration                    : 50 min 48 s
Bit rate mode               : Variable
Bit rate                    : 23.9 Mb/s
Width                       : 1 920 pixels
Height                      : 1 080 pixels
Display aspect ratio        : 16:9
Frame rate mode             : Constant
Frame rate                  : 23.976 (24000/1001) FPS
Color space                 : YUV
Chroma subsampling          : 4:2:0
Bit depth                   : 8 bits
Scan type                   : Progressive
Bits/(Pixel*Frame)          : 0.480
Stream size                 : 8.47 GiB (78%)
Default                     : Yes
Forced                      : No
Audio #1
ID                          : 2
Format                      : DTS XLL
Format/Info                 : Digital Theater Systems
Commercial name             : DTS-HD Master Audio
Codec ID                    : A_DTS
Duration                    : 50 min 48 s
Bit rate mode               : Variable
Bit rate                    : 3 389 kb/s
Channel(s)                  : 6 channels
Channel layout              : C L R Ls Rs LFE
Sampling rate               : 48.0 kHz
Frame rate                  : 93.750 FPS (512 SPF)
Bit depth                   : 24 bits
Compression mode            : Lossless
Stream size                 : 1.20 GiB (11%)
Language                    : Russian
Default                     : Yes
Forced                      : No
Audio #2
ID                          : 3
Format                      : DTS XLL
Format/Info                 : Digital Theater Systems
Commercial name             : DTS-HD Master Audio
Codec ID                    : A_DTS
Duration                    : 50 min 48 s
Bit rate mode               : Variable
Bit rate                    : 3 360 kb/s
Channel(s)                  : 6 channels
Channel layout              : C L R Ls Rs LFE
Sampling rate               : 48.0 kHz
Frame rate                  : 93.750 FPS (512 SPF)
Bit depth                   : 24 bits
Compression mode            : Lossless
Stream size                 : 1.19 GiB (11%)
Language                    : English
Default                     : No
Forced                      : No
Text #1
ID                          : 4
Format                      : UTF-8
Codec ID                    : S_TEXT/UTF8
Codec ID/Info               : UTF-8 Plain Text
Duration                    : 49 min 15 s
Bit rate                    : 81 b/s
Count of elements           : 389
Stream size                 : 29.2 KiB (0%)
Language                    : Russian
Default                     : No
Forced                      : No
Text #2
ID                          : 5
Format                      : PGS
Codec ID                    : S_HDMV/PGS
Codec ID/Info               : Picture based subtitle format used on BDs/HD-DVDs
Duration                    : 49 min 9 s
Bit rate                    : 28.9 kb/s
Count of elements           : 806
Stream size                 : 10.1 MiB (0%)
Language                    : English
Default                     : No
Forced                      : No
Menu
00:00:00.000                : en:Chapter 1
00:08:27.674                : en:Chapter 2
00:15:39.939                : en:Chapter 3
00:22:28.931                : en:Chapter 4
00:29:30.352                : en:Chapter 5
00:37:46.389                : en:Chapter 6
00:45:59.799                : en:Chapter 7
00:49:52.281                : en:Chapter 8
-

6. Коралловые моря / Coral Seas

Коралловые рифы теплых тропических морей можно назвать морскими джунглями, окруженными океанской пустыней. Бесчисленное количество форм, размеров и ярких расцветок экзотических обитателей этих морей создает иллюзию подводного рая. Но на самом деле в этих "райских кущах" идет непрерывная и жестокая борьба за выживание.-

MediaInfo

General
Unique ID                   : 159356327057450253806620720050154839310 (0x77E2E986A4CE51B2A194461B41691D0E)
Complete name               : I:\Video\The.Blue.Planet.2001.BluRay.Remux\The.Blue.Planet.E06.Coral.Seas.1080p.BluRay.Remux.mkv
Format                      : Matroska
Format version              : Version 4
File size                   : 10.6 GiB
Duration                    : 50 min 48 s
Overall bit rate mode       : Variable
Overall bit rate            : 30.0 Mb/s
Encoded date                : UTC 2018-11-26 14:45:36
Writing application         : mkvmerge v27.0.0 ('Metropolis') 64-bit
Writing library             : libebml v1.3.6 + libmatroska v1.4.9
Video
ID                          : 1
Format                      : AVC
Format/Info                 : Advanced Video Codec
Format profile              : High@L4.1
Format settings             : CABAC / 2 Ref Frames
Format settings, CABAC      : Yes
Format settings, ReFrames   : 2 frames
Codec ID                    : V_MPEG4/ISO/AVC
Duration                    : 50 min 48 s
Bit rate mode               : Variable
Bit rate                    : 23.8 Mb/s
Width                       : 1 920 pixels
Height                      : 1 080 pixels
Display aspect ratio        : 16:9
Frame rate mode             : Constant
Frame rate                  : 23.976 (24000/1001) FPS
Color space                 : YUV
Chroma subsampling          : 4:2:0
Bit depth                   : 8 bits
Scan type                   : Progressive
Bits/(Pixel*Frame)          : 0.479
Stream size                 : 8.45 GiB (79%)
Default                     : Yes
Forced                      : No
Audio #1
ID                          : 2
Format                      : DTS XLL
Format/Info                 : Digital Theater Systems
Commercial name             : DTS-HD Master Audio
Codec ID                    : A_DTS
Duration                    : 50 min 48 s
Bit rate mode               : Variable
Bit rate                    : 3 081 kb/s
Channel(s)                  : 6 channels
Channel layout              : C L R Ls Rs LFE
Sampling rate               : 48.0 kHz
Frame rate                  : 93.750 FPS (512 SPF)
Bit depth                   : 24 bits
Compression mode            : Lossless
Stream size                 : 1.09 GiB (10%)
Language                    : Russian
Default                     : Yes
Forced                      : No
Audio #2
ID                          : 3
Format                      : DTS XLL
Format/Info                 : Digital Theater Systems
Commercial name             : DTS-HD Master Audio
Codec ID                    : A_DTS
Duration                    : 50 min 48 s
Bit rate mode               : Variable
Bit rate                    : 3 051 kb/s
Channel(s)                  : 6 channels
Channel layout              : C L R Ls Rs LFE
Sampling rate               : 48.0 kHz
Frame rate                  : 93.750 FPS (512 SPF)
Bit depth                   : 24 bits
Compression mode            : Lossless
Stream size                 : 1.08 GiB (10%)
Language                    : English
Default                     : No
Forced                      : No
Text #1
ID                          : 4
Format                      : UTF-8
Codec ID                    : S_TEXT/UTF8
Codec ID/Info               : UTF-8 Plain Text
Duration                    : 49 min 11 s
Bit rate                    : 66 b/s
Count of elements           : 314
Stream size                 : 24.1 KiB (0%)
Language                    : Russian
Default                     : No
Forced                      : No
Text #2
ID                          : 5
Format                      : PGS
Codec ID                    : S_HDMV/PGS
Codec ID/Info               : Picture based subtitle format used on BDs/HD-DVDs
Duration                    : 49 min 3 s
Bit rate                    : 23.5 kb/s
Count of elements           : 652
Stream size                 : 8.23 MiB (0%)
Language                    : English
Default                     : No
Forced                      : No
Menu
00:00:00.000                : en:Chapter 1
00:11:06.374                : en:Chapter 2
00:16:37.622                : en:Chapter 3
00:23:27.364                : en:Chapter 4
00:31:47.030                : en:Chapter 5
00:39:24.070                : en:Chapter 6
00:49:54.408                : en:Chapter 7
-

7. Приливные моря / Tidal Seas

Морские приливы играют важную роль в жизни подводных обитателей. Обилие растительности в приливной зоне привлекает огромное количество рыб и морских животных, а те в свою очередь становятся желанной добычей для морских хищников.-

MediaInfo

General
Unique ID                   : 84670892959697620297364723778217129352 (0x3FB3055441C68415A59A5CC3D9493588)
Complete name               : I:\Video\The.Blue.Planet.2001.BluRay.Remux\The.Blue.Planet.E07.Tidal.Seas.1080p.BluRay.Remux.mkv
Format                      : Matroska
Format version              : Version 4
File size                   : 10.8 GiB
Duration                    : 50 min 48 s
Overall bit rate mode       : Variable
Overall bit rate            : 30.4 Mb/s
Encoded date                : UTC 2018-11-26 14:58:29
Writing application         : mkvmerge v27.0.0 ('Metropolis') 64-bit
Writing library             : libebml v1.3.6 + libmatroska v1.4.9
Video
ID                          : 1
Format                      : AVC
Format/Info                 : Advanced Video Codec
Format profile              : High@L4.1
Format settings             : CABAC / 2 Ref Frames
Format settings, CABAC      : Yes
Format settings, ReFrames   : 2 frames
Codec ID                    : V_MPEG4/ISO/AVC
Duration                    : 50 min 48 s
Bit rate mode               : Variable
Bit rate                    : 23.6 Mb/s
Width                       : 1 920 pixels
Height                      : 1 080 pixels
Display aspect ratio        : 16:9
Frame rate mode             : Constant
Frame rate                  : 23.976 (24000/1001) FPS
Color space                 : YUV
Chroma subsampling          : 4:2:0
Bit depth                   : 8 bits
Scan type                   : Progressive
Bits/(Pixel*Frame)          : 0.475
Stream size                 : 8.38 GiB (78%)
Default                     : Yes
Forced                      : No
Audio #1
ID                          : 2
Format                      : DTS XLL
Format/Info                 : Digital Theater Systems
Commercial name             : DTS-HD Master Audio
Codec ID                    : A_DTS
Duration                    : 50 min 48 s
Bit rate mode               : Variable
Bit rate                    : 3 400 kb/s
Channel(s)                  : 6 channels
Channel layout              : C L R Ls Rs LFE
Sampling rate               : 48.0 kHz
Frame rate                  : 93.750 FPS (512 SPF)
Bit depth                   : 24 bits
Compression mode            : Lossless
Stream size                 : 1.21 GiB (11%)
Language                    : Russian
Default                     : Yes
Forced                      : No
Audio #2
ID                          : 3
Format                      : DTS XLL
Format/Info                 : Digital Theater Systems
Commercial name             : DTS-HD Master Audio
Codec ID                    : A_DTS
Duration                    : 50 min 48 s
Bit rate mode               : Variable
Bit rate                    : 3 375 kb/s
Channel(s)                  : 6 channels
Channel layout              : C L R Ls Rs LFE
Sampling rate               : 48.0 kHz
Frame rate                  : 93.750 FPS (512 SPF)
Bit depth                   : 24 bits
Compression mode            : Lossless
Stream size                 : 1.20 GiB (11%)
Language                    : English
Default                     : No
Forced                      : No
Text #1
ID                          : 4
Format                      : UTF-8
Codec ID                    : S_TEXT/UTF8
Codec ID/Info               : UTF-8 Plain Text
Duration                    : 49 min 16 s
Bit rate                    : 80 b/s
Count of elements           : 377
Stream size                 : 29.2 KiB (0%)
Language                    : Russian
Default                     : No
Forced                      : No
Text #2
ID                          : 5
Format                      : PGS
Codec ID                    : S_HDMV/PGS
Codec ID/Info               : Picture based subtitle format used on BDs/HD-DVDs
Duration                    : 49 min 10 s
Bit rate                    : 28.3 kb/s
Count of elements           : 794
Stream size                 : 9.94 MiB (0%)
Language                    : English
Default                     : No
Forced                      : No
Menu
00:00:00.000                : en:Chapter 1
00:08:11.157                : en:Chapter 2
00:15:01.192                : en:Chapter 3
00:23:37.499                : en:Chapter 4
00:29:59.756                : en:Chapter 5
00:37:08.935                : en:Chapter 6
00:44:51.480                : en:Chapter 7
00:49:53.449                : en:Chapter 8
-

8. Побережье / Coasts

На границе между сушей и морем животные пребывают в постоянном движении: одни направляются к берегу, другие держат путь в открытый океан. Многие морские обитатели (морские птицы, черепахи, ластоногие) выводят свое потомство на берегу. Возможность полакомиться легкой добычей собирает у побережья хищных животных и птиц.-

MediaInfo

General
Unique ID                   : 86603553276543352799416872742651845090 (0x41273CD6EDEFE5C3B14FEEFB6A6A59E2)
Complete name               : I:\Video\The.Blue.Planet.2001.BluRay.Remux\The.Blue.Planet.E08.Coasts.1080p.BluRay.Remux.mkv
Format                      : Matroska
Format version              : Version 4
File size                   : 10.8 GiB
Duration                    : 50 min 34 s
Overall bit rate mode       : Variable
Overall bit rate            : 30.6 Mb/s
Encoded date                : UTC 2018-11-26 15:26:27
Writing application         : mkvmerge v27.0.0 ('Metropolis') 64-bit
Writing library             : libebml v1.3.6 + libmatroska v1.4.9
Video
ID                          : 1
Format                      : AVC
Format/Info                 : Advanced Video Codec
Format profile              : High@L4.1
Format settings             : CABAC / 2 Ref Frames
Format settings, CABAC      : Yes
Format settings, ReFrames   : 2 frames
Codec ID                    : V_MPEG4/ISO/AVC
Duration                    : 50 min 34 s
Bit rate mode               : Variable
Bit rate                    : 23.8 Mb/s
Width                       : 1 920 pixels
Height                      : 1 080 pixels
Display aspect ratio        : 16:9
Frame rate mode             : Constant
Frame rate                  : 23.976 (24000/1001) FPS
Color space                 : YUV
Chroma subsampling          : 4:2:0
Bit depth                   : 8 bits
Scan type                   : Progressive
Bits/(Pixel*Frame)          : 0.479
Stream size                 : 8.41 GiB (78%)
Default                     : Yes
Forced                      : No
Audio #1
ID                          : 2
Format                      : DTS XLL
Format/Info                 : Digital Theater Systems
Commercial name             : DTS-HD Master Audio
Codec ID                    : A_DTS
Duration                    : 50 min 34 s
Bit rate mode               : Variable
Bit rate                    : 3 410 kb/s
Channel(s)                  : 6 channels
Channel layout              : C L R Ls Rs LFE
Sampling rate               : 48.0 kHz
Frame rate                  : 93.750 FPS (512 SPF)
Bit depth                   : 24 bits
Compression mode            : Lossless
Stream size                 : 1.20 GiB (11%)
Language                    : Russian
Default                     : Yes
Forced                      : No
Audio #2
ID                          : 3
Format                      : DTS XLL
Format/Info                 : Digital Theater Systems
Commercial name             : DTS-HD Master Audio
Codec ID                    : A_DTS
Duration                    : 50 min 34 s
Bit rate mode               : Variable
Bit rate                    : 3 383 kb/s
Channel(s)                  : 6 channels
Channel layout              : C L R Ls Rs LFE
Sampling rate               : 48.0 kHz
Frame rate                  : 93.750 FPS (512 SPF)
Bit depth                   : 24 bits
Compression mode            : Lossless
Stream size                 : 1.20 GiB (11%)
Language                    : English
Default                     : No
Forced                      : No
Text #1
ID                          : 4
Format                      : UTF-8
Codec ID                    : S_TEXT/UTF8
Codec ID/Info               : UTF-8 Plain Text
Duration                    : 48 min 58 s
Bit rate                    : 88 b/s
Count of elements           : 387
Stream size                 : 31.9 KiB (0%)
Language                    : Russian
Default                     : No
Forced                      : No
Text #2
ID                          : 5
Format                      : PGS
Codec ID                    : S_HDMV/PGS
Codec ID/Info               : Picture based subtitle format used on BDs/HD-DVDs
Duration                    : 48 min 45 s
Bit rate                    : 29.9 kb/s
Count of elements           : 788
Stream size                 : 10.4 MiB (0%)
Language                    : English
Default                     : No
Forced                      : No
Menu
00:00:00.000                : en:Chapter 1
00:07:08.887                : en:Chapter 2
00:14:09.974                : en:Chapter 3
00:21:11.854                : en:Chapter 4
00:29:09.748                : en:Chapter 5
00:36:24.182                : en:Chapter 6
00:42:36.095                : en:Chapter 7
00:49:35.306                : en:Chapter 8
-
Примечание: Релиз без рекламы --
[Profile] [PM]
Display posts from previous:    

The time now is: Today 21:51

All times are GMT



You cannot post new topics in this forum
You cannot reply to topics in this forum
You cannot edit your posts in this forum
You cannot delete your posts in this forum
You cannot vote in polls in this forum
You cannot attach files in this forum
You cannot download files in this forum