Голубая Лагуна / The Blue Lagoon (1980) BDRip 1080p

 
Автор Сообщение

sergej644 ®

Пол:

Стаж: 4 года 11 месяцев

Сообщений: 6046

Откуда: Soviet Union



Награды: Нет

Торрент-статистика

Создавать темы 31-Окт-2014 19:16

[Цитировать]

Информация о фильме
Название: Голубая Лагуна
Оригинальное название: The Blue Lagoon
Год выхода: 1980
Страна: США
Выпущено: Columbia Pictures Corporation
Жанр: Приключения, драма, мелодрама
Продолжительность: 01:44:44
Перевод: Профессиональный (Многоголосый закадровый)
Режиссер: Рэндал Клайзер
В ролях: Брук Шилдс, Кристофер Аткинс, Лео МакКерн, Уильям Дэниелс, Элва Джозефсон, Гленн Коэн, Алан Хопгуд, Гас Меркюрио, Джефри Клайзер, Брэдли Прайс, Чад Тиммерман, Герт Джейкоби, Алекс Хэмилтон, Ричард Эвансон-О фильме: Страшное кораблекрушение, счастливое спасение и необитаемый остров положили начало одной из самых красивых и трогательных историй о любви. Долгие годы юная пара живет на прекрасном тропическом острове. Но по мере того, как они взрослеют, в их сердцах зарождается возвышенная, красивая, как окружающий мир, любовь. Романтическая история Адама и Евы, зарождения возвышенной и чувственной любви, красиво снятая оператором Нестором Альмендросом. Эротические сцены в фильме далеки от порнографии. Фильм является римейком картины 1949 года.
-Файл
Кодек: x264
Формат: MKV
Качество: BDRip 1080p (BDRemux от delo2006)
Видео: AVC (High@L4.1) 1920x1040 (1.85:1), 23.976 fps, 9965 kbps, 0,208 Bits/Pixel
Аудио 1: DD (AC-3) 2.0 ch, 192 kbps (Rus)
Аудио 2: DD (AC-3) 5.1 ch, 448 kbps (Eng)
Субтитры: Русские, Английские
Размер: (1/3 BD)Скриншоты

MI

General
Unique ID : 212476195937737275981357909973382628919 (0x9FD96D443EEAA683A870E7887A1E8637)
Format : Matroska
Format version : Version 2
File size : 7.76 GiB
Duration : 1h 45mn
Overall bit rate : 10.6 Mbps
Movie name : Голубая Лагуна (1980) BDRip (1080p)
Encoded date : UTC 2013-01-19 07:17:45
Writing application : mkvmerge v5.8.0 ('No Sleep / Pillow') built on Sep 2 2012 15:37:04
Writing library : libebml v1.2.3 + libmatroska v1.3.0
Video
ID : 1
Format : AVC
Format/Info : Advanced Video Codec
Format profile : High@L4.1
Format settings, CABAC : Yes
Format settings, ReFrames : 4 frames
Codec ID : V_MPEG4/ISO/AVC
Duration : 1h 45mn
Bit rate : 9 965 Kbps
Width : 1 920 pixels
Height : 1 040 pixels
Display aspect ratio : 1.85:1
Frame rate mode : Constant
Frame rate : 23.976 fps
Color space : YUV
Chroma subsampling : 4:2:0
Bit depth : 8 bits
Scan type : Progressive
Bits/(Pixel*Frame) : 0.208
Stream size : 7.14 GiB (92%)
Title : Release by Alex260680
Writing library : x264 core 129 r2230 1cffe9f
Encoding settings : cabac=1 / ref=4 / deblock=1:-2:-2 / analyse=0x3:0x113 / me=umh / subme=11 / psy=1 / psy_rd=1.00:0.10 / mixed_ref=1 / me_range=32 / chroma_me=1 / trellis=2 / 8x8dct=1 / cqm=0 / deadzone=21,11 / fast_pskip=0 / chroma_qp_offset=-3 / threads=12 / lookahead_threads=2 / sliced_threads=0 / nr=0 / decimate=0 / interlaced=0 / bluray_compat=0 / constrained_intra=0 / bframes=5 / b_pyramid=2 / b_adapt=2 / b_bias=0 / direct=3 / weightb=1 / open_gop=0 / weightp=2 / keyint=240 / keyint_min=23 / scenecut=40 / intra_refresh=0 / rc=2pass / mbtree=0 / bitrate=9965 / ratetol=1.0 / qcomp=0.60 / qpmin=0 / qpmax=69 / qpstep=4 / cplxblur=20.0 / qblur=0.5 / ip_ratio=1.40 / pb_ratio=1.30 / aq=1:0.80
Language : English
Default : Yes
Forced : No
Audio #1
ID : 2
Format : AC-3
Format/Info : Audio Coding 3
Mode extension : CM (complete main)
Format settings, Endianness : Big
Codec ID : A_AC3
Duration : 1h 45mn
Bit rate mode : Constant
Bit rate : 192 Kbps
Channel(s) : 2 channels
Channel positions : Front: L R
Sampling rate : 48.0 KHz
Bit depth : 16 bits
Compression mode : Lossy
Stream size : 144 MiB (2%)
Title : MVO
Language : Russian
Default : Yes
Forced : No
Audio #2
ID : 3
Format : AC-3
Format/Info : Audio Coding 3
Mode extension : CM (complete main)
Format settings, Endianness : Big
Codec ID : A_AC3
Duration : 1h 45mn
Bit rate mode : Constant
Bit rate : 448 Kbps
Channel(s) : 6 channels
Channel positions : Front: L C R, Side: L R, LFE
Sampling rate : 48.0 KHz
Bit depth : 16 bits
Compression mode : Lossy
Stream size : 337 MiB (4%)
Title : Original
Language : English
Default : No
Forced : No
Text #1
ID : 4
Format : UTF-8
Codec ID : S_TEXT/UTF8
Codec ID/Info : UTF-8 Plain Text
Language : Russian
Default : No
Forced : No
Text #2
ID : 5
Format : UTF-8
Codec ID : S_TEXT/UTF8
Codec ID/Info : UTF-8 Plain Text
Language : English
Default : No
Forced : No
Menu
00:00:00.000 : en:Chapter1
00:09:54.009 : en:Chapter2
00:19:09.105 : en:Chapter3
00:28:04.307 : en:Chapter4
00:39:53.556 : en:Chapter5
00:45:27.599 : en:Chapter6
00:51:52.192 : en:Chapter7
01:03:37.188 : en:Chapter8
01:08:21.971 : en:Chapter9
01:19:24.216 : en:Chapter10
01:32:03.893 : en:Chapter11
01:43:06.930 : en:Chapter12
01:44:43.902 : en:Chapter13

Интересно

В 1991 году вышло продолжение фильма «Возвращение в Голубую лагуну», в котором одним из двух главных героев является сын Ричарда и Эмелин, названный, однако, Ричардом
Из-за традиционного мнения, что мужественный герой должен быть выше своей партнёрши, Брук Шилдс в значительной части сцен была вынуждена стоять и ходить в специально выкопанных канавках в песке пляжа. В свои 14 лет актриса (рост 177 см) была на 10 сантиметров выше 18-летнего Кристофера Аткинса.
Все обнажённые сцены с участием Эммелин (Брук Шилдс) были сняты с использованием дублёров. В ряде других сцен она появляется со своими собственными волосами приклеенными к груди.
Режиссёрский замысел, по которому двое подростков должны были сниматься на протяжении всего фильма частично или полностью обнажёнными отпугнул многих актёров, потенциальных кандидатов на главные роли, включая саму Брук Шилдс, которая была изначально выбрана на роль Эммелин. После её отказа продюсеры сделали предложение ещё нескольким актёрам, в числе которых были Дайан Лэйн, Мэтт Диллон и Лори Лафлин, но все они также отклонили предложение. Когда до начала съёмок оставалось всего несколько дней, в отчаянии режиссёр согласился на то, что в Брук Шилдс не будет сниматься полностью обнажённой, а там где это будет необходимо, её заменят дублёры. Когда этот вопрос был решён, режиссёр вернулся к записям прослушиваний более чем 4 тысяч кандидатов на главную мужскую роль, которая в итоге досталась Кристоферу Аткинсу.
После того как основная дублёрша Брук Шилдс получила травму спины, её в отдельных сценах заменяли координатор трюковых съёмок Кати Тротт, а также, приглашённая для съёмок тренер и дрессировщик дельфинов.
Флора и фауна острова, на котором оказываются главные герои, абсолютно не соответствует предполагаемому месту действия картины. Ради большей экзотики на остров был помещён очень пестрый набор животных с разных континентов и климатических поясов.
Съёмки фильма прошли главным образом на острове Нануя-Леву в архипелаге Фиджи в Тихом Океане и на Ямайке.

Ограничения

Рейтинг R - Детям до 17 лет обязательно присутствие родителей.
Рейтинг R получают фильмы, в содержании которых обязательно содержится материал, предназначенный только для взрослой аудитории. Родителям рекомендуется хорошо подумать, прежде чем посмотреть такой фильм вместе со своими детьми. Фильм, получивший рейтинг R, скорее всего содержит сексуальные сцены, эпизоды с употреблением наркотиков, нецензурную брань, фрагменты с насилием и т.д.
-
[Профиль] [ЛС]
Кто просматривает тему:

Форум Тема Автор Размер
Animal Planet Animal Planet: Голубые Багамы / Bahama Blue [серии 1-6 из 6] (Ian Herring) [2014 г., Документальный, природа, флора, фауна, HDTVRip 720p] skorpionN 9.49 GB
Отечественные мультфильмы Где ты, голубая Золушка? (Владимир Хмельницкий) [1971, СССР, Кукольный мультфильм, SATRip] TorrentFilm 170 MB
Фильмы 2011 года Голубая сталь / Blue Steel (1989) BDRip от New-Team | Р2, А sergej644 1.46 GB
Фильмы (HD Rips | 720p, 1080p) Голубка (Сергей Ольденбург-Свинцов) [2009, Россия, драма, комедия, HDTV 1080i] + Original Rus TorrentFilm 12.14 GB
Фильмы 2014 года Голубки разводятся / Le tourtereaux divorcent (Винченцо Марано / Vincenzo Marano) [2014, Франция, комедийная мелодрама, DVB] Original (Fre) + Sub (rus) TorrentFilm 2.01 GB
Фильмы 2010 года Голубь / Пижон / Le pigeon (Лоренцо Габриэль / Lorenzo Gabriele) [2010, Франция, Бельгия, комедия, SATRip] MVO (Кинопоказ) TorrentFilm 1.37 GB
Фильмы (HD DVD, Blu-ray и BDRemux) Голубь сидел на ветке, размышляя о бытии / En duva satt på en gren och funderade på tillvaron (2014) BDRemux 1080р | Р Russian Mafia 33.35 GB
Фильмы 2014 года Голубь сидел на ветке, размышляя о бытии / En duva satt på en gren och funderade på tillvaron (2014) HDRip | P BOSS 1.46 GB
Показать сообщения:    

Текущее время: Сегодня 04:30

Часовой пояс: GMT



Вы не можете начинать темы
Вы не можете отвечать на сообщения
Вы не можете редактировать свои сообщения
Вы не можете удалять свои сообщения
Вы не можете голосовать в опросах
Вы не можете прикреплять файлы к сообщениям
Вы не можете скачивать файлы