Голос. Сезон №3. Выпуск №9 (2014.10.31) HDTVRip [H.264/720p-LQ]

 
Автор Сообщение

sergej644 ®

Пол:

Стаж: 4 года 11 месяцев

Сообщений: 6038

Откуда: Soviet Union



Награды: Нет

Торрент-статистика

Создавать темы 04-Ноя-2014 22:45

[Цитировать]

- Голос. Сезон №3. Выпуск №9 (2014.10.31) HDTVRip [H.264/720p-LQ] -Режиссер / Телекомпания: Первый канал
Русское название: Голос
Год выпуска: 2014
Жанр: ТВ-Шоу, развлекательный
Описание:
Новый сезон вокального шоу "Голос" стартует! В этом году количество желающих попасть на проект снова побило рекорд — в музыкальную редакцию Первого канала пришло почти 13 тысяч заявок.
Ведущий: Дмитрий Нагиев
Жюри: Александр Градский, Леонид Агутин, Пелагея, Дима Билан
Продолжительность: ~ 01:44:52
Видеокодек: AVC
Битрейт видео: ~2933 kb/s
Размер кадра: 1280 x 720
Качество видео: HDTVRip
Аудиокодек: AC3, 6ch.
Битрейт аудио: 384 kb/s

MediaInfo

Формат : Matroska
Версия формата : Version 4 / Version 2
Размер файла : 2,48 Гбайт
Продолжительность : 1 ч. 44 м.
Режим общего битрейта : Переменный
Общий поток : 3385 Кбит/сек
Дата кодирования : UTC 2014-11-04 08:55:59
Программа кодирования : mkvmerge v6.1.0 ('Old Devil') built on Apr 20 2013 10:07:04
Библиотека кодирования : libebml v1.3.0 + libmatroska v1.4.0
Видео
Идентификатор : 1
Формат : AVC
Формат/Информация : Advanced Video Codec
Профиль формата : [url=mailto:High@L4.0]High@L4.0[/url]
Параметр CABAC формата : Да
Параметр ReFrames формата : 3 кадра
Идентификатор кодека : V_MPEG4/ISO/AVC
Продолжительность : 1 ч. 44 м.
Вид битрейта : Переменный
Битрейт : 2933 Кбит/сек
Максимальный битрейт : 20,0 Мбит/сек
Ширина : 1280 пикселей
Высота : 720 пикселей
Соотношение сторон : 16:9
Режим частоты кадров : Постоянный
Частота кадров : 25,000 кадров/сек
Стандарт вещания : PAL
Цветовое пространство : YUV
Субдискретизация насыщенности : 4:2:0
Битовая глубина : 8 бит
Тип развёртки : Прогрессивная
Бит/(Пиксели*Кадры) : 0.127
Размер потока : 2,15 Гбайт (87%)
Язык : English
Default : Да
Forced : Нет
Основные цвета : BT.709
Характеристики трансфера : BT.709
Коэффициенты матрицы : BT.709
Аудио
Идентификатор : 2
Формат : AC-3
Формат/Информация : Audio Coding 3
Расширение режима : CM (complete main)
Параметр Endianness формата : Big
Идентификатор кодека : A_AC3
Продолжительность : 1 ч. 44 м.
Вид битрейта : Постоянный
Битрейт : 384 Кбит/сек
Каналы : 6 каналов
Расположение каналов : Front: L C R, Side: L R, LFE
Частота : 48,0 КГц
Битовая глубина : 16 бит
Метод сжатия : С потерями
Размер потока : 288 Мбайт (11%)
Язык : English
Default : Да
Forced : Нет
Скриншоты: Время раздачи: 24/7. До первых 5 скачавших.
Rip by Alexey724--
[Профиль] [ЛС]
Показать сообщения:    

Текущее время: Сегодня 00:11

Часовой пояс: GMT



Вы не можете начинать темы
Вы не можете отвечать на сообщения
Вы не можете редактировать свои сообщения
Вы не можете удалять свои сообщения
Вы не можете голосовать в опросах
Вы не можете прикреплять файлы к сообщениям
Вы не можете скачивать файлы