Голос. Сезон №3. Выпуск №8 (2014.10.24) HDTV [H.264/1080i]

 
Автор Сообщение

sergej644 ®

Пол:

Стаж: 4 года 11 месяцев

Сообщений: 6045

Откуда: Soviet Union



Награды: Нет

Торрент-статистика

Создавать темы 24-Окт-2014 19:15

[Цитировать]

- Голос. Сезон №3. Выпуск №8 (2014.10.24) HDTV [H.264/1080i] - Режиссер / Телекомпания: Первый канал
Русское название: Голос
Год выпуска: 2014
Жанр: ТВ-Шоу, развлекательный
Описание:
Новый сезон вокального шоу "Голос" стартует! В этом году количество желающих попасть на проект снова побило рекорд — в музыкальную редакцию Первого канала пришло почти 13 тысяч заявок.
Ведущий: Дмитрий Нагиев
Жюри: Александр Градский, Леонид Агутин, Пелагея, Дима Билан
Продолжительность: ~ 01:47:17
Видеокодек: MPEG-TS(AVC)
Битрейт видео: ~11,1 Мбит/сек
Размер кадра: 1920 x 1080
Качество видео: HDTV
Аудиокодек: AC3, 6ch.
Битрейт аудио: 384 kb/s

MediaInfo

Формат : MPEG-TS
Размер файла : 9,08 Гбайт
Продолжительность : 1 ч. 47 м.
Общий поток : 12,1 Мбит/сек
Видео
Идентификатор : 5481 (0x1569)
Идентификатор меню : 1 (0x1)
Формат : AVC
Формат/Информация : Advanced Video Codec
Профиль формата : [url=mailto:High@L4.0]High@L4.0[/url]
Параметр CABAC формата : Да
Параметр ReFrames формата : 3 кадра
Идентификатор кодека : 27
Продолжительность : 1 ч. 47 м.
Битрейт : 11,1 Мбит/сек
Ширина : 1920 пикселей
Высота : 1080 пикселей
Соотношение сторон : 16:9
Частота кадров : 25,000 кадров/сек
Стандарт вещания : Component
Цветовое пространство : YUV
Субдискретизация насыщенности : 4:2:0
Битовая глубина : 8 бит
Тип развёртки : Чересстрочная
Порядок развёртки : Верхнее поле первое
Бит/(Пиксели*Кадры) : 0.215
Размер потока : 8,34 Гбайт (92%)
Основные цвета : BT.709-5, BT.1361, IEC 61966-2-4, SMPTE RP177
Характеристики трансфера : BT.709-5, BT.1361
Коэффициенты матрицы : BT.709-5, BT.1361, IEC 61966-2-4 709, SMPTE RP177
Аудио
Идентификатор : 5485 (0x156D)
Идентификатор меню : 1 (0x1)
Формат : AC-3
Формат/Информация : Audio Coding 3
Расширение режима : CM (complete main)
Идентификатор кодека : 6
Продолжительность : 1 ч. 47 м.
Вид битрейта : Постоянный
Битрейт : 384 Кбит/сек
Каналы : 6 каналов
Расположение каналов : Front: L C R, Side: L R, LFE
Частота : 48,0 КГц
Битовая глубина : 16 бит
Метод сжатия : С потерями
Размер потока : 295 Мбайт (3%)
Язык : Russian
Скриншоты: Время раздачи: 24/7. До первых 5 скачавших.
Rip by olegka7373
[Профиль] [ЛС]
Показать сообщения:    

Текущее время: Сегодня 09:57

Часовой пояс: GMT



Вы не можете начинать темы
Вы не можете отвечать на сообщения
Вы не можете редактировать свои сообщения
Вы не можете удалять свои сообщения
Вы не можете голосовать в опросах
Вы не можете прикреплять файлы к сообщениям
Вы не можете скачивать файлы