Голоса / The Voices (2014) BDRip 1080p от ExKinoRay | P

 
Автор Сообщение

достали все ®

Пол:

Стаж: 1 год 8 месяцев

Сообщений: 6600



Награды: 12 (Подробнее)

Mega Releaser 3 (Количество: 1) За внесенный вклад в развитие сайта (Количество: 1) Mega Releaser 1 (Количество: 1)
Торрент-статистика

Создавать темы 10-Апр-2015 08:09

[Цитировать]

Информация о фильме
Название: Голоса
Оригинальное название: The Voices
Год выхода: 2014
Жанр: Триллер, комедия, криминал
Режиссер: Маржан Сатрапи
В ролях: Райан Рейнольдс, Джемма Артертон, Анна Кендрик, Джеки Уивер, Элла Смит, Пол Чахиди, Стэнли Таунсенд, Ади Шанкар, Сэм Спруэлл, Валери Кох, Гулливер МакГрат, Пол Брайтвелл, Михаэль Пинк, Алекс Тондовски, Харви Фридман, Стефани Вогт, Кай Фанг Рик, Антье Рау
О фильме:
Джерри — оптимистичный, приятный парень, но он душевно болен и в последнее время не принимал назначенные ему препараты. В своих галлюцинациях он видит, как его кот предлагает ему стать серийным убийцей, в то время как его пес пытается убедить его, что он хороший человек. Начав вновь принимать препараты, он переживает короткие периоды ясности, в которые понимает, что в его жизни гораздо больше насилия, чем он себе представлял.

Страна: США, Германия
Студия: 1984 Private Defense Contractors, Mandalay Vision
Продолжительность: 01:43:36
Перевод: Профессиональный многоголосый (Gears Media)
Файл
Кодек: AVC, H.264
Качество: BDRip (1080p)
Видео: MPEG-4 AVC, 15.1 Мбит/с, 1920x816, 23.976 кадр/с
Звук: AC3, 6 ch, 448 Кбит/с
Субтитры: Русские, английские
Семпл
Релиз от:

Релиз

Аудио 1: Русский, AC3, 6 ch, 448 Кбит/с (MVO, Gears Media)
Аудио 2: Английский, DTS 5.1, 1509 kbps, 48 kHz (Original)
За русские субтитры огромное спасибо Janetta
За 6-каналку спасибо BLUEBIRD

Инфо-файл

General
Complete name : VideosThe.Voices.2014.BDRip.1080p.ExKinoRay.mkv
Format : Matroska
Format version : Version 2
File size : 12.6 GiB
Duration : 1h 43mn
Overall bit rate : 17.4 Mbps
Encoded date : UTC 2015-04-09 16:54:40
Writing application : mkvmerge v5.8.0 ('No Sleep / Pillow') built on Sep 2 2012 15:37:04
Writing library : libebml v1.2.3 + libmatroska v1.3.0
Video
ID : 1
Format : AVC
Format/Info : Advanced Video Codec
Format profile : High@L4.1
Format settings, CABAC : Yes
Format settings, ReFrames : 5 frames
Codec ID : V_MPEG4/ISO/AVC
Duration : 1h 43mn
Bit rate : 15.1 Mbps
Width : 1 920 pixels
Height : 816 pixels
Display aspect ratio : 2.35:1
Frame rate mode : Constant
Frame rate : 23.976 fps
Color space : YUV
Chroma subsampling : 4:2:0
Bit depth : 8 bits
Scan type : Progressive
Bits/(Pixel*Frame) : 0.402
Stream size : 10.9 GiB (87%)
Writing library : x264 core 146 r2538 121396c
Encoding settings : cabac=1 / ref=5 / deblock=1:-3:-3 / analyse=0x3:0x113 / me=umh / subme=10 / psy=1 / psy_rd=1.00:0.00 / mixed_ref=1 / me_range=24 / chroma_me=1 / trellis=2 / 8x8dct=1 / cqm=0 / deadzone=21,11 / fast_pskip=0 / chroma_qp_offset=-2 / threads=12 / lookahead_threads=2 / sliced_threads=0 / nr=0 / decimate=1 / interlaced=0 / bluray_compat=0 / constrained_intra=0 / bframes=8 / b_pyramid=2 / b_adapt=2 / b_bias=0 / direct=1 / weightb=1 / open_gop=0 / weightp=2 / keyint=240 / keyint_min=23 / scenecut=40 / intra_refresh=0 / rc_lookahead=40 / rc=crf / mbtree=0 / crf=17.0 / qcomp=0.65 / qpmin=0 / qpmax=69 / qpstep=4 / vbv_maxrate=62500 / vbv_bufsize=78125 / crf_max=0.0 / nal_hrd=none / filler=0 / ip_ratio=1.30 / pb_ratio=1.20 / aq=1:0.70
Language : English
Default : Yes
Forced : Yes
Audio #1
ID : 2
Format : AC-3
Format/Info : Audio Coding 3
Mode extension : CM (complete main)
Format settings, Endianness : Big
Codec ID : A_AC3
Duration : 1h 43mn
Bit rate mode : Constant
Bit rate : 448 Kbps
Channel(s) : 6 channels
Channel positions : Front: L C R, Side: L R, LFE
Sampling rate : 48.0 KHz
Bit depth : 16 bits
Compression mode : Lossy
Stream size : 332 MiB (3%)
Title : Gears Media
Language : Russian
Default : Yes
Forced : Yes
Audio #2
ID : 3
Format : DTS
Format/Info : Digital Theater Systems
Mode : 16
Format settings, Endianness : Big
Codec ID : A_DTS
Duration : 1h 43mn
Bit rate mode : Constant
Bit rate : 1 509 Kbps
Channel(s) : 6 channels
Channel positions : Front: L C R, Side: L R, LFE
Sampling rate : 48.0 KHz
Bit depth : 24 bits
Compression mode : Lossy
Stream size : 1.09 GiB (9%)
Language : English
Default : No
Forced : No
Text #1
ID : 4
Format : UTF-8
Codec ID : S_TEXT/UTF8
Codec ID/Info : UTF-8 Plain Text
Title : Janetta
Language : Russian
Default : No
Forced : No
Text #2
ID : 5
Format : UTF-8
Codec ID : S_TEXT/UTF8
Codec ID/Info : UTF-8 Plain Text
Language : English
Default : No
Forced : No
Text #3
ID : 6
Format : UTF-8
Codec ID : S_TEXT/UTF8
Codec ID/Info : UTF-8 Plain Text
Title : SDH
Language : English
Default : No
Forced : No
Menu
00:00:00.000 : en:00:00:00.000
00:07:30.408 : en:00:07:30.408
00:15:14.872 : en:00:15:14.872
00:22:56.875 : en:00:22:56.875
00:30:41.465 : en:00:30:41.465
00:39:29.784 : en:00:39:29.784
00:48:43.712 : en:00:48:43.712
01:00:10.524 : en:01:00:10.524
01:08:43.244 : en:01:08:43.244
01:16:26.040 : en:01:16:26.040
01:26:34.314 : en:01:26:34.314
01:36:13.393 : en:01:36:13.393

Скриншоты


[Профиль] [ЛС]
Показать сообщения:    

Текущее время: Сегодня 13:48

Часовой пояс: GMT



Вы не можете начинать темы
Вы не можете отвечать на сообщения
Вы не можете редактировать свои сообщения
Вы не можете удалять свои сообщения
Вы не можете голосовать в опросах
Вы не можете прикреплять файлы к сообщениям
Вы не можете скачивать файлы