Голоса большой страны (2016) WEB-DL 720p | iTunes

 
Автор Сообщение

достали все ®

Пол:

Стаж: 1 год 8 месяцев

Сообщений: 6613



Награды: 12 (Подробнее)

Mega Seeder 2 (Количество: 1) Mega Seeder 5 (Количество: 1) Top Releaser 2 (Количество: 1)
Торрент-статистика

Создавать темы 13-Фев-2016 22:38

[Цитировать]

Информация о фильме
Название: Голоса большой страны
Оригинальное название: Голоса большой страны
Год выхода: 2016
Жанр: мюзикл, комедия, мелодрама
Режиссер: Таир Мамедов
В ролях: Алена Тойминцева, Андрей Гризли, Егор Сесарев, Тина Кузнецова, Антон Беляев, Мариам Мерабова, Ярослав Дронов, Илья Киреев, Виктория Жук, Анжелика Фролова
О фильме: В каждом уголке нашей огромной родины есть талантливые люди, достойные признания и славы. Они слетаются в столицу и принимают участие в популярных телевизионных шоу. Но свет софитов гаснет, а жизнь продолжается. И не так, как им это виделось… Каждому из наших героев — юных и взрослых, амбициозных и скромных, одиноких и влюбленных — придется пройти через многие испытания. Их ждут взлеты и падения, встречи и расставания, дружба и предательство. Но в итоге они станут одной большой командой, семьей, объединившей разных людей из самых отдаленных городков нашей большой страны, во имя музыки, таланта и, конечно же, любви!

Выпущено: Россия
Продолжительность: 01:41:09
Озвучивание: Оригинал [iTunes]
Файл
Формат: MKV
Качество: WEB-DL 720p
Видео: MPEG-4 AVC, 3909 kb/s, 1280x536
Аудио: AC3, 384 kb/s (6 ch)

MI

Format : Matroska
Format version : Version 2
File size : 3.09 GiB
Duration : 1h 41mn
Overall bit rate : 4 380 Kbps
Movie name : Golosa Bolshoy Strany (2016) - Release for HDCLUB
Encoded date : UTC 2016-02-13 19:33:19
Writing application : mkvmerge v3.4.0 ('Rapunzel') built on May 15 2010 09:38:20
Writing library : libebml v0.8.0 + libmatroska v0.9.0
Video
ID : 1
Format : AVC
Format/Info : Advanced Video Codec
Format profile : Main@L3.1
Format settings, CABAC : No
Format settings, ReFrames : 2 frames
Codec ID : V_MPEG4/ISO/AVC
Duration : 1h 41mn
Bit rate : 3 909 Kbps
Width : 1 280 pixels
Height : 536 pixels
Display aspect ratio : 2.40:1
Frame rate mode : Constant
Frame rate : 24.000 fps
Color space : YUV
Chroma subsampling : 4:2:0
Bit depth : 8 bits
Scan type : Progressive
Bits/(Pixel*Frame) : 0.237
Stream size : 2.76 GiB (89%)
Title : Golosa Bolshoy Strany (2016) - Release for HDCLUB
Language : Russian
Default : Yes
Forced : No
Color range : Limited
Color primaries : BT.709
Transfer characteristics : BT.709
Matrix coefficients : BT.709
Audio
ID : 2
Format : AC-3
Format/Info : Audio Coding 3
Mode extension : CM (complete main)
Format settings, Endianness : Big
Codec ID : A_AC3
Duration : 1h 41mn
Bit rate mode : Constant
Bit rate : 384 Kbps
Channel(s) : 6 channels
Channel positions : Front: L C R, Side: L R, LFE
Sampling rate : 48.0 KHz
Bit depth : 16 bits
Compression mode : Lossy
Stream size : 278 MiB (9%)
Title : AC3 5.1 @ 384 kbps
Language : Russian
Default : Yes
Forced : No
Menu
00:00:00.000 : en:1
00:07:02.000 : en:2
00:17:47.000 : en:3
00:29:25.000 : en:4
00:36:17.000 : en:5
00:47:10.000 : en:6
00:58:01.000 : en:7
01:05:39.000 : en:8
01:13:43.000 : en:9
01:26:37.000 : en:10
01:35:57.000 : en:11

Скриншоты

Релиз:


[Профиль] [ЛС]
Показать сообщения:    

Текущее время: Сегодня 02:31

Часовой пояс: GMT



Вы не можете начинать темы
Вы не можете отвечать на сообщения
Вы не можете редактировать свои сообщения
Вы не можете удалять свои сообщения
Вы не можете голосовать в опросах
Вы не можете прикреплять файлы к сообщениям
Вы не можете скачивать файлы