Голод / Hunger (2008) BDRip 720p | ATV | A

 
Автор Сообщение

sergej644 ®

Пол:

Стаж: 4 года 11 месяцев

Сообщений: 6045

Откуда: Soviet Union



Награды: Нет

Торрент-статистика

Создавать темы 08-Фев-2015 20:58

[Цитировать]

Голод / Hunger (2008) BDRip-AVC 720p | ATV | A
«A compelling and unforgettable portrayal of life within the maze prison at the time of 1981 IRA hunger strike»
Год выпуска: 2008
Производство: Великобритания, Ирландия / Film4, Channel Four Film, Northern Ireland Screen
Жанр: драма, биография, история
Режиссер: Стив МакКуин
В ролях: Майкл Фассбендер, Лиам Каннингэм, Стюарт Грэхэм, Лэйн Мигоу, Брайан Миллиган, Лайам МакМахон, Карен Хассан, Фрэнк Маккаскер, Лалор Родди, Хелен Мэдден
Описание:
Последние шесть недель жизни Бобби Сэндса, члена британского парламента, боевика ИРА, умершего в тюрьме во время голодовки. Бобби Сэндса осудили в 1977 году на 14 лет за хранение револьвера, из которого, как выяснилось в результате баллистической экспертизы, стреляли в полицейских.
У голодовки было пять целей: разрешить заключенным не носить тюремную форму, не работать, получать передачи и самостоятельно организовывать досуг и одна сверхзадача - признать всех ирландских узников-республиканцев политзаключенными или военнопленными, а не уголовниками. В тюрьме, уже во время голодовки, он был избран депутатом парламента от местечка Ферманаг и Южный Тайрон. Сразу после этого парламент принял закон, запрещающий осужденным преступникам избираться в парламент Соединенного королевства.

Продолжительность: 01:36:14
Перевод: Авторский (одноголосый, закадровый) [Юрий Сербин]
Cубтитры: Русские, Английские (вшитые, отключаемые)
Качество: BDRip [720p]
Видео: MPEG-4 AVC/H.264, 1280x536 (2.40:1), 4 800 kbps, 23.976 fps
Аудио 1: Русский/Авторский (одноголосый, закадровый) [Юрий Сербин], AAC / 2.0 / 118 Kbps / 48.0 KHz
Аудио 2: Русский/Авторский (одноголосый, закадровый) [Юрий Сербин], AC3 / 5.1 / 448 Kbps / 48.0 KHz
Аудио 3: Английский/Оригинальный, AAC / 2.0 / 118 Kbps / 48.0 KHz
Аудио 4: Английский/Оригинальный, AC3 / 5.1 / 448 Kbps / 48.0 KHz

iTunes Meta Tags

Sort Name: Hunger (2009)
XID: Apple:vendor_id:2009-309097
Content ID: 808261493
Copyright: © 2010 Hunger Productions. All Rights Reserved.
ScreenWriters: Энда Уолш, Стив МакКуин
Producers: Робин Гатч, Лаура Гастингс-Смит, Эйн Каннинг
Director: Стив МакКуин
Cast: Lori Heuring (Jordan), Linden Ashby (Grant), Joe Egender (Luke), Lea Kohl (Anna), Julian Rojas (Alex), Bjorn Johnson (The Scientist), Britton Partain (Young Boy), Laura Albyn (Teenage Girl - Maggie), John Cooley (Teenage Boy), Ian Hopper (Sheriff), Kathy Shea (Medical Examiner), Kayden Sawyer (Sunlight Girl), Yvonne Stancil (Dead Mom), Kevin Shaver (Accident Welder), Gabe Kittle (Accident Paramedic)
Rating: 15
Long Deion: Фильм рассказывает о борьбе заключённых из Ирландской республиканской армии за признание за собой статуса политических. Сначала они пытаются добиться этого, отказываясь мыться, носить тюремную одежду и всячески разводя грязь в своих камерах. Однако эта тактика не принесла плодов: узников насильно стригли и мыли, избивая при этом до полусмерти. Наконец, один из них - Бобби Сэндс - решает начать смертельную голодовку...
Deion: Фильм рассказывает о борьбе заключённых из Ирландской республиканской армии за признание за собой статуса политических. Сначала они пытаются добиться этого, отказываясь мыться, носить тюремную одежду и всячески разводя грязь в своих камерах. Однако э
Release Date: 2009-02-23T08:00:00Z
Genre: Drama
Artist: Steve McQueen
Name: Голод
Comments: «A compelling and unforgettable portrayal of life within the maze prison at the time of 1981 IRA hunger strike»

MediaInfo

General
Complete name : I:modoutHunger.2008.BDRip.720p.A.m4v
Format : MPEG-4
Codec ID : M4V
File size : 3.98 GiB
Duration : 1h 36mn
Overall bit rate mode : Variable
Overall bit rate : 5 924 Kbps
Movie name : Голод
Performer : Steve McQueen
Genre : Drama
ContentType : Short Film
Deion : Фильм рассказывает о борьбе заключённых из Ирландской республиканской армии за признание за собой статуса политических. Сначала они пытаются добиться этого, отказываясь мыться, носить тюремную одежду и всячески разводя грязь в своих камерах.
Recorded date : UTC 2009-02-23 08:00:00
Encoded date : UTC 2014-09-24 11:49:24
Tagged date : UTC 2014-09-24 12:00:58
Copyright : © 2010 Hunger Productions. All Rights Reserved.
Cover : Yes
Comment : «A compelling and unforgettable portrayal of life within the maze prison at the time of 1981 IRA hunger strike»
ContentRating : uk-movie|15|350|
Title/Sort : Hunger (2009)
LongDeion : Фильм рассказывает о борьбе заключённых из Ирландской республиканской армии за признание за собой статуса политических. Сначала они пытаются добиться этого, отказываясь мыться, носить тюремную одежду и всячески разводя грязь в своих камерах. Однако эта тактика не принесла плодов: узников насильно стригли и мыли, избивая при этом до полусмерти. Наконец, один из них - Бобби Сэндс - решает начать смертельную голодовку...
HDVideo : Yes
AppleStoreCatalogID : 808261493
Vendor : Apple:vendor_id:2009-309097
Video
ID : 1
Format : AVC
Format/Info : Advanced Video Codec
Format profile : High@L4.1
Format settings, CABAC : Yes
Format settings, ReFrames : 9 frames
Codec ID : avc1
Codec ID/Info : Advanced Video Coding
Duration : 1h 36mn
Bit rate : 4 798 Kbps
Maximum bit rate : 17.1 Mbps
Width : 1 280 pixels
Height : 536 pixels
Display aspect ratio : 2.40:1
Frame rate mode : Constant
Frame rate : 23.976 fps
Color space : YUV
Chroma subsampling : 4:2:0
Bit depth : 8 bits
Scan type : Progressive
Bits/(Pixel*Frame) : 0.292
Stream size : 3.23 GiB (81%)
Title : Hunger.2008
Language : English
Encoded date : UTC 2014-09-24 11:49:24
Tagged date : UTC 2014-09-24 11:50:11
Audio #1
ID : 2
Format : AAC
Format/Info : Advanced Audio Codec
Format profile : LC
Codec ID : 40
Duration : 1h 36mn
Bit rate mode : Variable
Bit rate : 108 Kbps
Maximum bit rate : 179 Kbps
Channel(s) : 2 channels
Channel positions : Front: L R
Sampling rate : 48.0 KHz
Compression mode : Lossy
Stream size : 74.3 MiB (2%)
Title : AAC AVO [Serbin]
Language : Russian
Encoded date : UTC 2014-09-24 11:42:43
Tagged date : UTC 2014-09-24 11:50:11
Audio #2
ID : 3
Format : AC-3
Format/Info : Audio Coding 3
Mode extension : CM (complete main)
Format settings, Endianness : Big
Codec ID : ac-3
Duration : 1h 36mn
Bit rate mode : Constant
Bit rate : 448 Kbps
Channel(s) : 6 channels
Channel positions : Front: L C R, Side: L R, LFE
Sampling rate : 48.0 KHz
Bit depth : 16 bits
Compression mode : Lossy
Stream size : 308 MiB (8%)
Title : AC3 AVO [Serbin]
Language : Russian
Encoded date : UTC 2014-09-24 11:50:01
Tagged date : UTC 2014-09-24 11:50:11
Audio #3
ID : 4
Format : AAC
Format/Info : Advanced Audio Codec
Format profile : LC
Codec ID : 40
Duration : 1h 36mn
Bit rate mode : Variable
Bit rate : 109 Kbps
Maximum bit rate : 180 Kbps
Channel(s) : 2 channels
Channel positions : Front: L R
Sampling rate : 48.0 KHz
Compression mode : Lossy
Stream size : 75.4 MiB (2%)
Title : AAC original
Language : English
Encoded date : UTC 2014-09-24 11:47:14
Tagged date : UTC 2014-09-24 11:50:11
Audio #4
ID : 5
Format : AC-3
Format/Info : Audio Coding 3
Mode extension : CM (complete main)
Format settings, Endianness : Big
Codec ID : ac-3
Duration : 1h 36mn
Bit rate mode : Constant
Bit rate : 448 Kbps
Channel(s) : 6 channels
Channel positions : Front: L C R, Side: L R, LFE
Sampling rate : 48.0 KHz
Bit depth : 16 bits
Compression mode : Lossy
Stream size : 308 MiB (8%)
Title : AC3 original
Language : English
Encoded date : UTC 2014-09-24 11:50:07
Tagged date : UTC 2014-09-24 11:50:11
Text #1
ID : 6
Format : Timed Text
Muxing mode : sbtl
Codec ID : tx3g
Duration : 1h 32mn
Bit rate mode : Variable
Bit rate : 61 bps
Stream size : 41.1 KiB (0%)
Language : Russian
Encoded date : UTC 2014-09-24 11:50:11
Tagged date : UTC 2014-09-24 11:50:11
Text #2
ID : 7
Format : Timed Text
Muxing mode : sbtl
Codec ID : tx3g
Duration : 1h 30mn
Bit rate mode : Variable
Bit rate : 46 bps
Stream size : 30.1 KiB (0%)
Language : English
Encoded date : UTC 2014-09-24 11:50:11
Tagged date : UTC 2014-09-24 11:50:11
Menu
ID : 8
Codec ID : text
Duration : 1h 36mn
Encoded date : UTC 2014-09-24 11:51:03
Tagged date : UTC 2014-09-24 11:51:03
Bit rate mode : VBR

x264 лог

x264 [info]: frame I:678 Avg QP:15.22 size:123623
x264 [info]: frame P:23180 Avg QP:18.88 size: 43513
x264 [info]: frame B:114591 Avg QP:20.75 size: 20691
x264 [info]: consecutive B-frames: 0.8% 1.3% 3.3% 6.6% 6.3% 55.6% 3.3% 1.1% 2.1% 2.1% 2.4% 8.9% 3.2% 3.0%
x264 [info]: mb I I16..4: 20.0% 64.3% 15.7%
x264 [info]: mb P I16..4: 0.2% 11.7% 0.7% P16..4: 25.8% 35.5% 15.8% 3.0% 0.5% skip: 6.9%
x264 [info]: mb B I16..4: 0.0% 3.1% 0.0% B16..8: 37.0% 19.3% 4.2% direct: 7.0% skip:29.4% L0:49.7% L1:42.4% BI: 8.0%
x264 [info]: 8x8 transform intra:93.0% inter:55.6%
x264 [info]: coded y,uvDC,uvAC intra: 97.8% 79.6% 54.5% inter: 39.0% 19.5% 6.5%
x264 [info]: i16 v,h,dc,p: 21% 9% 27% 43%
x264 [info]: i8 v,h,dc,ddl,ddr,vr,hd,vl,hu: 9% 6% 14% 10% 14% 12% 12% 11% 12%
x264 [info]: i4 v,h,dc,ddl,ddr,vr,hd,vl,hu: 14% 9% 6% 9% 14% 13% 12% 11% 12%
x264 [info]: i8c dc,h,v,p: 45% 22% 17% 16%
x264 [info]: Weighted P-Frames: Y:4.7% UV:2.5%
x264 [info]: ref P L0: 40.4% 7.8% 18.0% 9.4% 7.3% 5.9% 5.1% 3.2% 2.8% 0.1% 0.0%
x264 [info]: ref B L0: 56.0% 15.5% 10.5% 5.6% 4.4% 3.6% 3.1% 1.2%
x264 [info]: ref B L1: 86.7% 13.3%
x264 [info]: kb/s:4798.35
[Профиль] [ЛС]
Показать сообщения:    

Текущее время: Сегодня 09:54

Часовой пояс: GMT



Вы не можете начинать темы
Вы не можете отвечать на сообщения
Вы не можете редактировать свои сообщения
Вы не можете удалять свои сообщения
Вы не можете голосовать в опросах
Вы не можете прикреплять файлы к сообщениям
Вы не можете скачивать файлы