Голод / Hunger (Стив МакКуин / Steve McQueen) [2008, Великобритания, Ирландия, драма, биография, история, HDRip] MVO (Кинопоказ) + Original Eng

 
Автор Сообщение

painkiller ®

Стаж: 2 года 3 месяца

Сообщений: 582



Награды: Нет

Торрент-статистика

Создавать темы 14-Авг-2014 09:10

[Цитировать]

Голод / Hunger
Страна: Великобритания, Ирландия
Жанр: драма, биография, история
Год выпуска: 2008
Продолжительность: 01:36:14
Перевод: Профессиональный (многоголосый закадровый) Кинопоказ
Cубтитры: нет
Оригинальная аудиодорожка: английский
Режиссер: Стив МакКуин / Steve McQueen
В ролях: Майкл Фассбендер, Лиам Каннингэм, Стюарт Грэхэм, Лэйн Мигоу, Брайан Миллиган, Лайам МакМахон, Карен Хассан, Фрэнк Маккаскер, Лалор Родди, Хелен Мэдден
Описание: Последние шесть недель жизни Бобби Сэндса, члена британского парламента, боевика ИРА, умершего в тюрьме во время голодовки. Бобби Сэндса осудили в 1977 году на 14 лет за хранение револьвера, из которого, как выяснилось в результате баллистической экспертизы, стреляли в полицейских.
У голодовки было пять целей: разрешить заключенным не носить тюремную форму, не работать, получать передачи и самостоятельно организовывать досуг и одна сверхзадача — признать всех ирландских узников-республиканцев политзаключенными или военнопленными, а не уголовниками. В тюрьме, уже во время голодовки, он был избран депутатом парламента от местечка Ферманаг и Южный Тайрон. Сразу после этого парламент принял закон, запрещающий осужденным преступникам избираться в парламент Соединенного королевства.
Сэмпл: http://multi-up.com/986468
Качество видео: HDRip
Формат видео: AVI
Видео: MPEG4, XviD, 720x304 (2.35), 23.976 fps, 1 509 Kbps (0.288 bit/pixel)
Аудио: AC-3, 48.0 KHz, 2 ch, 192 Kbps, CBR - русский
Аудио 2: AC-3, 48.0 KHz, 6 ch, 448 Kbps, CBR - английский

MediaInfo

Общее
Полное имя : K:\Голод.avi
Формат : AVI
Формат/Информация : Audio Video Interleave
Размер файла : 1,45 Гбайт
Продолжительность : 1 ч. 36 м.
Общий поток : 2163 Кбит/сек
Программа кодирования : VirtualDubMod 1.5.10.2 (build 2540/release)
Библиотека кодирования : VirtualDubMod build 2540/release
Видео
Идентификатор : 0
Формат : MPEG-4 Visual
Профиль формата : Advanced Simple@L5
Параметр BVOP формата : 2
Параметр QPel формата : Нет
Параметр GMC формата : Без точки перехода
Параметр матрицы формата : Default (MPEG)
Идентификатор кодека : XVID
Идентификатор кодека/Подсказка : XviD
Продолжительность : 1 ч. 36 м.
Битрейт : 1509 Кбит/сек
Ширина : 720 пикселей
Высота : 304 пикселя
Соотношение сторон : 2,35:1
Частота кадров : 23,976 кадра/сек
Цветовое пространство : YUV
Субдискретизация насыщенности : 4:2:0
Битовая глубина : 8 бит
Тип развёртки : Прогрессивная
Метод сжатия : С потерями
Бит/(Пиксели*Кадры) : 0.288
Размер потока : 1,01 Гбайт (70%)
Библиотека кодирования : XviD 1.1.0 (UTC 2005-11-22)
Аудио #1
Идентификатор : 1
Формат : AC-3
Формат/Информация : Audio Coding 3
Расширение режима : CM (complete main)
Параметр Endianness формата : Big
Идентификатор кодека : 2000
Продолжительность : 1 ч. 36 м.
Вид битрейта : Постоянный
Битрейт : 192 Кбит/сек
Каналы : 2 канала
Расположение каналов : Front: L R
Частота : 48,0 КГц
Битовая глубина : 16 бит
Метод сжатия : С потерями
Размер потока : 132 Мбайт (9%)
Выравнивание : Разделение по промежуткам
Продолжительность промежутка : 42 мс. (1,00 видеокадр)
Время предзагрузки промежутка : 500 мс.
Заголовок : Профессиональный (многоголосый закадровый) Кинопоказ
Аудио #2
Идентификатор : 2
Формат : AC-3
Формат/Информация : Audio Coding 3
Расширение режима : CM (complete main)
Параметр Endianness формата : Big
Идентификатор кодека : 2000
Продолжительность : 1 ч. 36 м.
Вид битрейта : Постоянный
Битрейт : 448 Кбит/сек
Каналы : 6 каналов
Расположение каналов : Front: L C R, Side: L R, LFE
Частота : 48,0 КГц
Битовая глубина : 16 бит
Метод сжатия : С потерями
Размер потока : 308 Мбайт (21%)
Выравнивание : Разделение по промежуткам
Продолжительность промежутка : 42 мс. (1,00 видеокадр)
Время предзагрузки промежутка : 500 мс.
Заголовок : Английский

Скриншоты

[Профиль] [ЛС]

Создавать темы 06-Авг-2015 23:17 (спустя 11 месяцев 23 дня)

Топик был перенесен из форума Фильмы до 2014 года в форум Фильмы до 2012 года
sergej644
 

Создавать темы 12-Июн-2016 08:50 (спустя 1 год 9 месяцев)

Топик был перенесен из форума Фильмы 2011 года в форум Фильмы 2006-2008 года
Russian Mafia
 
Показать сообщения:    

Текущее время: Сегодня 14:42

Часовой пояс: GMT



Вы не можете начинать темы
Вы не можете отвечать на сообщения
Вы не можете редактировать свои сообщения
Вы не можете удалять свои сообщения
Вы не можете голосовать в опросах
Вы не можете прикреплять файлы к сообщениям
Вы не можете скачивать файлы