Голодные игры / The Hunger Games (2012) 1080p BDRip от BT-Club

 
Автор Сообщение

sergej644 ®

Пол:

Стаж: 4 года 11 месяцев

Сообщений: 6045

Откуда: Soviet Union



Награды: Нет

Торрент-статистика

Создавать темы 21-Янв-2015 00:09

[Цитировать]

Название: Голодные игры
Оригинальное название: The Hunger Games
Год выхода: 2012
Жанр: фантастика, боевик, приключения
Режиссер: Гэри Росс
В ролях: Дженнифер Лоуренс, Джош Хатчерсон, Лиам Хемсворт, Элизабет Бэнкс, Вуди Харрельсон, Стэнли Туччи, Ленни Кравиц, Уэс Бентли, Дональд Сазерленд, Тоби Джонс
Сюжет фильма: Будущее. Деспотичное государство ежегодно устраивает показательные игры на выживание, за которыми в прямом эфире следит весь мир. Жребий участвовать в Играх выпадает юной Китнисс и тайно влюбленному в нее Питу. Они знакомы с детства, но теперь должны стать врагами. Ведь по нерушимому закону Голодных игр победить может только один из 24 участников. Судьям не важно кто выиграет, главное - зрелище. И на этот раз зрелище будет незабываемым.
Контейнер: MKV
Видео: 1904x800 at 23.976 fps, MPEG-4 AVC, ~7200 kbps avg
Аудио#1: Russian: 48 kHz, DTS 5.1, ~1510 kbps avg |Дубляж, Blu-ray|
Аудио#2: English: 48 kHz, DTS 5.1, ~1510 kbps avg
Субтитры: Russian (Blu-ray), English

Отчет MI

Format : Matroska
File size : 10.2 GiB
Duration : 2h 22mn
Overall bit rate : 10.2 Mbps
Encoded date : UTC 2014-05-31 04:37:27
Writing application : mkvmerge v6.5.0 ('Isn't she lovely') built on Oct 20 2013 12:50:05
Writing library : libebml v1.3.0 + libmatroska v1.4.1
Video
ID : 1
Format : AVC
Format/Info : Advanced Video Codec
Format profile : High@L4.1
Format settings, CABAC : Yes
Format settings, ReFrames : 5 frames
Codec ID : V_MPEG4/ISO/AVC
Duration : 2h 22mn
Bit rate : 7 199 Kbps
Width : 1 904 pixels
Height : 800 pixels
Display aspect ratio : 2.40:1
Frame rate : 23.976 fps
Color space : YUV
Chroma subsampling : 4:2:0
Bit depth : 8 bits
Scan type : Progressive
Bits/(Pixel*Frame) : 0.197
Stream size : 6.98 GiB (68%)
Writing library : x264 core 138 r2358 9e941d1
Encoding settings : cabac=1 / ref=5 / deblock=1:0:0 / analyse=0x3:0x133 / me=tesa / subme=11 / psy=1 / psy_rd=1.00:0.15 / mixed_ref=1 / me_range=24 / chroma_me=1 / trellis=2 / 8x8dct=1 / cqm=0 / deadzone=21,11 / fast_pskip=0 / chroma_qp_offset=-3 / threads=12 / lookahead_threads=1 / sliced_threads=0 / nr=100 / decimate=1 / interlaced=0 / bluray_compat=0 / constrained_intra=0 / bframes=5 / b_pyramid=2 / b_adapt=2 / b_bias=0 / direct=3 / weightb=1 / open_gop=0 / weightp=2 / keyint=230 / keyint_min=22 / scenecut=40 / intra_refresh=0 / rc_lookahead=60 / rc=2pass / mbtree=1 / bitrate=7199 / ratetol=1.0 / qcomp=0.60 / qpmin=0 / qpmax=69 / qpstep=4 / cplxblur=20.0 / qblur=0.5 / vbv_maxrate=62500 / vbv_bufsize=78125 / nal_hrd=none / ip_ratio=1.40 / aq=1:1.00
Language : English
Audio #1
ID : 2
Format : DTS
Format/Info : Digital Theater Systems
Codec ID : A_DTS
Duration : 2h 22mn
Bit rate mode : Constant
Bit rate : 1 510 Kbps
Channel(s) : 6 channels
Channel positions : Front: L C R, Side: L R, LFE
Sampling rate : 48.0 KHz
Bit depth : 24 bits
Compression mode : Lossy
Stream size : 1.50 GiB (15%)
Title : Дублированный
Language : Russian
Audio #2
ID : 3
Format : DTS
Format/Info : Digital Theater Systems
Codec ID : A_DTS
Duration : 2h 22mn
Bit rate mode : Constant
Bit rate : 1 510 Kbps
Channel(s) : 6 channels
Channel positions : Front: L C R, Side: L R, LFE
Sampling rate : 48.0 KHz
Bit depth : 24 bits
Compression mode : Lossy
Stream size : 1.50 GiB (15%)
Title : Оригинал (Английский)
Language : English
Text #1
ID : 4
Format : PGS
Muxing mode : zlib
Codec ID : S_HDMV/PGS
Codec ID/Info : The same subtitle format used on BDs/HD-DVDs
Title : Русские
Language : Russian
Text #2
ID : 5
Format : PGS
Muxing mode : zlib
Codec ID : S_HDMV/PGS
Codec ID/Info : The same subtitle format used on BDs/HD-DVDs
Title : Английские
Language : English
Menu
00:00:00.000 : en:00:00:00.000
00:10:05.813 : en:00:10:05.813
00:18:00.078 : en:00:18:00.078
00:25:05.879 : en:00:25:05.879
00:31:12.662 : en:00:31:12.662
00:43:28.564 : en:00:43:28.564
00:50:38.702 : en:00:50:38.702
00:56:58.915 : en:00:56:58.915
01:06:57.763 : en:01:06:57.763
01:15:58.970 : en:01:15:58.970
01:22:06.046 : en:01:22:06.046
01:29:00.418 : en:01:29:00.418
01:38:00.749 : en:01:38:00.749
01:43:19.192 : en:01:43:19.192
01:57:56.611 : en:01:57:56.611
02:09:26.550 : en:02:09:26.550

Скриншоты

[Профиль] [ЛС]
Показать сообщения:    

Текущее время: Сегодня 00:19

Часовой пояс: GMT



Вы не можете начинать темы
Вы не можете отвечать на сообщения
Вы не можете редактировать свои сообщения
Вы не можете удалять свои сообщения
Вы не можете голосовать в опросах
Вы не можете прикреплять файлы к сообщениям
Вы не можете скачивать файлы