Голодные игры: Сойка-пересмешница. Часть II / The Hunger Games: Mockingjay - Part 2 (2015) BDRip 1080p от Ash61 | 3D-Video | hOU | iTunes

 
Автор Сообщение

Russian Mafia ®

Пол:

Стаж: 1 год 8 месяцев

Сообщений: 4247



Награды: 10 (Подробнее)

Mega Seeder 5 (Количество: 1) Top Releaser 4 (Количество: 1) Mega Seeder 4 (Количество: 1)
Торрент-статистика

Создавать темы 22-Мар-2016 05:20

[Цитировать]

-Голодные игры: Сойка-пересмешница. Часть II
The Hunger Games: Mockingjay - Part 2

«Да не угаснет пламя»
- Год выпуска: 2015
Страна: США, Германия (StudioCanal, Lionsgate, Color Force)
Жанр: Фантастика, Приключения
Продолжительность: 02:17:46
Перевод: Профессиональный дублированный - iTunes
Режиссер: Френсис Лоуренс / Francis Lawrence-Роли исполняли (дублировали):

Katniss Everdeen - Дженнифер Лоуренс (Наталья Грачёва)
Peeta Mellark - Джош Хатчерсон (Евгений Вальц)
Gale Hawthorne - Лиам Хемсворт (Артур Бесчастный)
Haymitch Abernathy - Вуди Харрельсон (Дмитрий Полонский)
President Snow - Дональд Сазерленд (Рудольф Панков)
Plutarch Heavensbee - Филип Сеймур Хоффман (Анатолий Хропов)
President Alma Coin - Джулианна Мур (Вера Воронкова)
Primrose Everdeen - Уиллоу Шилдс (Анастасия Добрынина)
Finnick Odair - Сэм Клафлин (Филипп Бледный)
Effie Trinket - Элизабет Бэнкс (Наталья Сапецкая)
Boggs - Махершала Али (Владислав Копп)
Johanna Mason - Джена Мэлоун (Ирина Киреева)
Beetee - Джеффри Райт (Алексей Багдасаров)
Katniss's Mother - Паула Малкомсон
Caesar Flickerman - Стэнли Туччи (Александр Вартанов)
-Описание: Китнисс Эвердин и своенравный Пит Мелларк пытаются выиграть гражданскую войну между самодержавным Капитолием и истерзанными войной районами Панема…

Знаете ли вы, что...

Фильм снят по мотивам романа Сьюзен Коллинз «Сойка-пересмешница» (Mockingjay, 2010).
Лили Рэйб, которая должна была сыграть командира Лайм из второго дистрикта, покинула проект в связи с занятостью в сценической постановке под названием «Много шума из ничего» (Much Ado About Nothing). В итоге ее роль досталась Гвендолин Кристи.
Филип Сеймур Хоффман, сыгравший в фильме Плутарха Хевенсби, скончался 2 февраля 2014 года в Нью-Йорке. Он успел закончить работу над первой частью и оставалась всего неделя до окончания работы над второй. В «Lionsgate» заявили, что работа над большинством сцен с участием Хоффмана завершена. Позже было заявлено, что персонаж Хоффмана будет воссоздан с помощью цифровых технологий из сцен, отснятых ранее.
Премьера: 4 ноября 2015 (19 ноября 2015)
Бюджет: $160 000 000
Кассовые сборы: $652 955 370

-Качество: BDRip (by Ash61) [с BD 3D Ger]
Контейнер: MKV
Формат 3D: Half OverUnder / Вертикальная анаморфная стереопара
Порядок ракурсов: левый ракурс первый-Видео: AVC / 23,976 fps / 1920х1080p / 8057 Kbps
Аудио:
#1 - Русский / AC3 / 48 KHz / 5.1 ch / 384 Kbps (Дубляж - iTunes)
#2 - Английский / AC3 / 48 KHz / 5.1 ch / 640 Kbps (Original - BD 3D Ger)
Субтитры (SRT):
Вшитые (softsub):
#1 - Русские Форсированные (включены по умолчанию)
#2 - Русские Полные
#3 - English Full
#4 - English SDH
Внешние (UTF-8):
#1 - Русские Форсированные (включены по умолчанию)

MediaInfo

General
Unique ID : 199249121396513721410235374638731144046 (0x95E5FC244F3CCB068B38EA477A7CAB6E)
Complete name : E:TheHungerGames.Mockingjay2(2015)3D-halfOU(Ash61)iTunesTheHungerGames.Mockingjay2(2015)3D-halfOU(Ash61)iTunes.mkv
Format : Matroska
Format version : Version 2
File size : 8.92 GiB
Duration : 2h 17mn
Overall bit rate : 9 265 Kbps
Movie name : Голодные игры: Сойка-пересмешница. Часть II / The Hunger Games: Mockingjay - Part 2 (2015) в 3Д
Encoded date : UTC 2016-03-21 23:26:42
Writing application : mkvmerge v5.8.0 ('No Sleep / Pillow') built on Sep 2 2012 15:37:04
Writing library : libebml v1.2.3 + libmatroska v1.3.0
Video
ID : 1
Format : AVC
Format/Info : Advanced Video Codec
Format profile : High@L4.1
Format settings, CABAC : Yes
Format settings, ReFrames : 4 frames
Codec ID : V_MPEG4/ISO/AVC
Duration : 2h 17mn
Bit rate : 8 057 Kbps
Width : 1 920 pixels
Height : 1 080 pixels
Display aspect ratio : 16:9
Frame rate mode : Constant
Frame rate : 23.976 fps
Color space : YUV
Chroma subsampling : 4:2:0
Bit depth : 8 bits
Scan type : Progressive
Bits/(Pixel*Frame) : 0.162
Stream size : 7.75 GiB (87%)
Title : BDRip by Ash61 (с BD 3D Ger)
Writing library : x264 core 146 r2538 121396c
Encoding settings : cabac=1 / ref=4 / deblock=1:-3:-3 / analyse=0x3:0x113 / me=umh / subme=10 / psy=1 / psy_rd=1.00:0.00 / mixed_ref=1 / me_range=32 / chroma_me=1 / trellis=2 / 8x8dct=1 / cqm=0 / deadzone=21,11 / fast_pskip=1 / chroma_qp_offset=-2 / threads=12 / lookahead_threads=3 / sliced_threads=0 / nr=0 / decimate=1 / interlaced=0 / bluray_compat=0 / constrained_intra=0 / bframes=10 / b_pyramid=2 / b_adapt=2 / b_bias=0 / direct=3 / weightb=1 / open_gop=0 / weightp=2 / keyint=250 / keyint_min=23 / scenecut=40 / intra_refresh=0 / rc_lookahead=60 / rc=crf / mbtree=1 / crf=15.5 / qcomp=0.70 / qpmin=0 / qpmax=69 / qpstep=4 / vbv_maxrate=40000 / vbv_bufsize=30000 / crf_max=0.0 / nal_hrd=none / filler=0 / frame-packing=4 / ip_ratio=1.40 / aq=1:0.70
Language : English
Default : Yes
Forced : No
Audio #1
ID : 2
Format : AC-3
Format/Info : Audio Coding 3
Mode extension : CM (complete main)
Format settings, Endianness : Big
Codec ID : A_AC3
Duration : 2h 17mn
Bit rate mode : Constant
Bit rate : 384 Kbps
Channel(s) : 6 channels
Channel positions : Front: L C R, Side: L R, LFE
Sampling rate : 48.0 KHz
Bit depth : 16 bits
Compression mode : Lossy
Stream size : 378 MiB (4%)
Title : Дубляж - iTunes
Language : Russian
Default : Yes
Forced : No
Audio #2
ID : 3
Format : AC-3
Format/Info : Audio Coding 3
Mode extension : CM (complete main)
Format settings, Endianness : Big
Codec ID : A_AC3
Duration : 2h 17mn
Bit rate mode : Constant
Bit rate : 640 Kbps
Channel(s) : 6 channels
Channel positions : Front: L C R, Side: L R, LFE
Sampling rate : 48.0 KHz
Bit depth : 16 bits
Compression mode : Lossy
Stream size : 631 MiB (7%)
Title : Original - BD 3D Ger
Language : English
Default : No
Forced : No
Text #1
ID : 4
Format : UTF-8
Codec ID : S_TEXT/UTF8
Codec ID/Info : UTF-8 Plain Text
Title : Форсированные
Language : Russian
Default : Yes
Forced : No
Text #2
ID : 5
Format : UTF-8
Codec ID : S_TEXT/UTF8
Codec ID/Info : UTF-8 Plain Text
Title : Полные
Language : Russian
Default : No
Forced : No
Text #3
ID : 6
Format : UTF-8
Codec ID : S_TEXT/UTF8
Codec ID/Info : UTF-8 Plain Text
Title : Full
Language : English
Default : No
Forced : No
Text #4
ID : 7
Format : UTF-8
Codec ID : S_TEXT/UTF8
Codec ID/Info : UTF-8 Plain Text
Title : SDH
Language : English
Default : No
Forced : No
Menu
00:00:00.000 : :1
00:10:58.116 : :2
00:19:43.682 : :3
00:29:34.106 : :4
00:43:44.956 : :5
00:55:20.901 : :6
01:04:54.849 : :7
01:19:02.988 : :8
01:37:28.259 : :9
01:49:21.805 : :10
01:59:34.417 : :11
02:05:49.792 : :12

Для оценки 3Д - Анимированные скрины















[Профиль] [ЛС]
Показать сообщения:    

Текущее время: Сегодня 08:27

Часовой пояс: GMT



Вы не можете начинать темы
Вы не можете отвечать на сообщения
Вы не можете редактировать свои сообщения
Вы не можете удалять свои сообщения
Вы не можете голосовать в опросах
Вы не можете прикреплять файлы к сообщениям
Вы не можете скачивать файлы