Голодные игры: Сойка-пересмешница. Часть I / The Hunger Games: Mockingjay - Part 1 (Френсис Лоуренс / Francis Lawrence) [2014, фантастика, приключения, BDRip] 1080p | iTunes

 
Автор Сообщение

sergej644 ®

Пол:

Стаж: 4 года 11 месяцев

Сообщений: 6035

Откуда: Soviet Union



Награды: Нет

Торрент-статистика

Создавать темы 20-Мар-2015 14:02

[Цитировать]

Информация о фильме
Название: Голодные игры: Сойка-пересмешница. Часть I
Оригинальное название: The Hunger Games: Mockingjay - Part 1
Год выхода: 2014
Жанр: фантастика, приключения
Режиссер: Френсис Лоуренс / Francis Lawrence
В ролях: Дженнифер Лоуренс (Katniss Everdeen), Лиам Хемсворт (Gale Hawthorne), Джош Хатчерсон (Peeta Mellark), Джулианна Мур (President Alma Coin), Филип Сеймур Хоффман (Plutarch Heavensbee), Дональд Сазерленд (President Snow), Вуди Харрельсон (Haymitch Abernathy), Элизабет Бэнкс (Effie Trinket), Натали Дормер (Cressida), Сэм Клафлин (Finnick Odair), Уиллоу Шилдс (Primrose Everdeen), Махершала Али (Boggs)
О фильме:
75-ые Голодные игры изменили все. Китнисс нарушила правила, и непоколебимое до той поры деспотичное правление Капитолия пошатнулось. У людей появилась надежда, и ее символ - Сойка-пересмешница. Теперь, чтобы освободить захваченного в плен Пита и защитить своих близких, Китнисс придется сражаться в настоящих битвах и стать еще сильнее, чем на арене игр.

Страна: США
Студия: Color Force, Lionsgate
Продолжительность: 02:02:50
Перевод: Дублированный [iTunes]
Файл
Кодек: x264
Качество: BDRip 1080p
Видео: MPEG4 Video (H264), 1920x800, 6070 Kbps, 23.976fps
Звук:
Rus, AC3, 384 kb/s (6 ch), 48 kHz
Eng, AC3, 640 kb/s (6 ch), 48 kHz
Субтитры: Русский, Английский

MediaInfo

x264 [info]: frame I:1211 Avg QP:11.23 size:180618
x264 [info]: frame P:44629 Avg QP:13.58 size: 60532
x264 [info]: frame B:130873 Avg QP:15.39 size: 20410
x264 [info]: consecutive B-frames: 2.9% 3.8% 21.1% 19.7% 17.6% 27.0% 7.7%
General
Unique ID : 188273916684154053913747486870340884784 (0x8DA43CC584FC3F55B328454DF1B3D930)
Complete name : D:RipsГолодные игры_Сойка-пересмешница_1.2014.BDRip.1080p.mkv
Format : Matroska
Format version : Version 2
File size : 6.09 GiB
Duration : 2h 2mn
Overall bit rate : 7 095 Kbps
Movie name : -=WALLEDOL=-
Encoded date : UTC 2015-03-19 13:29:48
Writing application : mkvmerge v4.0.0 ('The Stars were mine') сборка от Jun 6 2010 16:18:42
Writing library : libebml v1.0.0 + libmatroska v1.0.0
Video
ID : 1
Format : AVC
Format/Info : Advanced Video Codec
Format profile : High@L4.1
Format settings, CABAC : Yes
Format settings, ReFrames : 5 frames
Codec ID : V_MPEG4/ISO/AVC
Bit rate : 6 070 Kbps
Width : 1 920 pixels
Height : 800 pixels
Display aspect ratio : 2.40:1
Frame rate mode : Variable
Original frame rate : 23.976 fps
Color space : YUV
Chroma subsampling : 4:2:0
Bit depth : 8 bits
Scan type : Progressive
Bits/(Pixel*Frame) : 0.165
Title : The Hunger Games_Mockingjay - Part 1.2014.BDRip.1080p
Writing library : x264 core 144 r2525 40bb568
Encoding settings : cabac=1 / ref=5 / deblock=1:-3:-3 / analyse=0x3:0x133 / me=umh / subme=10 / psy=1 / psy_rd=1.00:0.10 / mixed_ref=1 / me_range=32 / chroma_me=1 / trellis=2 / 8x8dct=1 / cqm=0 / deadzone=21,11 / fast_pskip=0 / chroma_qp_offset=-3 / threads=6 / lookahead_threads=1 / sliced_threads=0 / nr=0 / decimate=1 / interlaced=0 / bluray_compat=0 / constrained_intra=0 / bframes=6 / b_pyramid=2 / b_adapt=2 / b_bias=0 / direct=3 / weightb=1 / open_gop=0 / weightp=2 / keyint=240 / keyint_min=23 / scenecut=40 / intra_refresh=0 / rc=2pass / mbtree=0 / bitrate=6070 / ratetol=1.0 / qcomp=0.60 / qpmin=0 / qpmax=69 / qpstep=4 / cplxblur=20.0 / qblur=0.5 / ip_ratio=1.40 / pb_ratio=1.30 / aq=1:1.00
Language : English
Default : No
Forced : No
Audio #1
ID : 2
Format : AC-3
Format/Info : Audio Coding 3
Mode extension : CM (complete main)
Format settings, Endianness : Big
Codec ID : A_AC3
Duration : 2h 2mn
Bit rate mode : Constant
Bit rate : 384 Kbps
Channel(s) : 6 channels
Channel positions : Front: L C R, Side: L R, LFE
Sampling rate : 48.0 KHz
Bit depth : 16 bits
Compression mode : Lossy
Stream size : 337 MiB (5%)
Title : iTunes
Language : Russian
Default : Yes
Forced : Yes
Audio #2
ID : 3
Format : AC-3
Format/Info : Audio Coding 3
Mode extension : CM (complete main)
Format settings, Endianness : Big
Codec ID : A_AC3
Duration : 2h 2mn
Bit rate mode : Constant
Bit rate : 640 Kbps
Channel(s) : 6 channels
Channel positions : Front: L C R, Side: L R, LFE
Sampling rate : 48.0 KHz
Bit depth : 16 bits
Compression mode : Lossy
Stream size : 562 MiB (9%)
Title : Original
Language : English
Default : No
Forced : No
Text #1
ID : 4
Format : UTF-8
Codec ID : S_TEXT/UTF8
Codec ID/Info : UTF-8 Plain Text
Title : Full
Language : Russian
Default : No
Forced : No
Text #2
ID : 5
Format : UTF-8
Codec ID : S_TEXT/UTF8
Codec ID/Info : UTF-8 Plain Text
Title : Full
Language : English
Default : No
Forced : No
Menu
00:00:00.000 : en:00:00:00.000
00:08:43.648 : en:00:08:43.648
00:15:02.819 : en:00:15:02.819
00:22:56.083 : en:00:22:56.083
00:29:52.457 : en:00:29:52.457
00:36:45.745 : en:00:36:45.745
00:42:34.969 : en:00:42:34.969
00:50:33.989 : en:00:50:33.989
00:56:31.012 : en:00:56:31.012
01:02:14.898 : en:01:02:14.898
01:09:27.830 : en:01:09:27.830
01:17:37.444 : en:01:17:37.444
01:25:10.105 : en:01:25:10.105
01:34:20.947 : en:01:34:20.947
01:41:33.838 : en:01:41:33.838
01:47:20.100 : en:01:47:20.100

Скриншоты

[Профиль] [ЛС]
Показать сообщения:    

Текущее время: Сегодня 18:16

Часовой пояс: GMT



Вы не можете начинать темы
Вы не можете отвечать на сообщения
Вы не можете редактировать свои сообщения
Вы не можете удалять свои сообщения
Вы не можете голосовать в опросах
Вы не можете прикреплять файлы к сообщениям
Вы не можете скачивать файлы