Голодные игры: Дилогия / The Hunger Games: Dilogy (2012-2013) BDRip-AVC от MediaClub | D, A

 
Автор Сообщение

Белочка ®

Пол:

Стаж: 5 лет 1 месяц

Сообщений: 2089



Награды: 1 (Подробнее)

Girls (Количество: 1)
Торрент-статистика

Создавать темы 11-Окт-2014 16:18

[Цитировать]


Информация о фильме
Название: Голодные игры. Дилогия
Оригинальное название: The Hunger Games: Dilogy
Год выхода: 2012-2013
Жанр: Фантастика, триллер, приключения
Режиссер: Гэри Росс, Френсис Лоуренс
В ролях: Дженнифер Лоуренс, Лиам Хемсворт, Джош Хатчерсон, Элизабет Бэнкс, Вуди Харрельсон, Стэнли Туччи, Ленни Кравиц, Уэс Бентли, Дональд Сазерленд, Уиллоу Шилдс, Сандра Эллис Лэфферти, Паула Малкомсон, Рода Гриффис, Сандино Мойя, Рэйко Боуман, Дуэйн Бойд, Энтони Рейнольдс, Сэм Клафлин, Джена Мэлоун, Филип Сеймур Хоффман, Джеффри Райт, Линн Коэн, Аманда Пламмер, Джек Куэйд, Тейлор Ст. Клэр, Брук Банди
О фильме:
Голодные игры (2012) Место действия - далёкое будущее. Едва не погибнув вследствие массового восстания и сумев подавить его, страна Панем принимает жёсткий закон. Зовётся он - "В напоминание о предательстве". Его директива - проведение в каждом из составляющих её поселений-дистриктов ежегодной церемонии, называемой "Жатва". По её условию, - трибутов (бойцов-смертников) - юношу и девушку определял жребий. Избранным предстояло сражаться на Арене: гористо-лесистой территории, полностью компьютезированной и оснащённой виртуальными неожиданностями. Победившим мог остаться только один. С годами, транслируемая на всю страну жестокость происходящего на Арене, превратила закон в традицию, обросшую зрелищностью, ставшую шоу, весьма выгодным для ставок и привлечения спонсорских средств... "Счастливых вам Голодных Игр! И пусть удача всегда будет с вами!" Экранизация первого романа в одноимённой трилогии американской писательницы Сьюзен Коллинз.
Голодные игры: И вспыхнет пламя (2013) Сумев выжить на безжалостных Голодных играх, Китнисс Эвердин и Пит Мелларк тщетно пытаются забыть о том, что произошло с ними в Капитолии. Но президент Сноу, диктатор государства Панем, и его клика не готовы оставить девушку и парня в покое, считая их опасными. Власти решают устроить показательные Игры, в которых примут участие победители прошлых лет от каждого дистрикта. Жребий брошен: Китнисс и Пит вынуждены вернуться на Арену. Вновь они лицом к лицу со смертью — ради своих близких, ради своего будущего, ради своей любви! Экранизация второго романа в одноимённой трилогии американской писательницы Сьюзен Коллинз.

Страна: США
Студия: Color Force, Larger Than Life Productions, Lionsgate, Ludas Productions
Продолжительность: 02:18:07 + 02:26:15
Перевод: Дублированный, авторский
Голодные игры (2012)
Кодек: x264
Качество: BDRip-AVC
Видео: MPEG-4 AVC, 2450 Кбит/с, 1024x426, 23.976 кадр/с
Звук:
Аудио #1: Русский (AC3, 6 ch, 448 Кбит/с) / Дублированный
Аудио #2: Русский (AC3, 6 ch, 448 Кбит/с) / Авторский одноголосый (Алексей Матвеев)
Аудио #3: Английский (AC3, 6 ch, 448 Кбит/с)
Субтитры: Русский (Full х 2, Voronine, MartinaG), английский (Full, SDH)
Голодные игры: И вспыхнет пламя (2013)
Кодек: x264
Качество: BDRip-AVC
Видео: MPEG-4 AVC, 1800 Кбит/с, 1024x576, 23.976 кадр/с
Звук:
Аудио #1: Русский (AC3, 6 ch, 448 Кбит/с) / Дублированный
Аудио #2: Русский (AC3, 6 ch, 448 Кбит/с) / Авторский одноголосый (Юрий Сербин)
Аудио #3: Русский (AC3, 6 ch, 448 Кбит/с) / Авторский одноголосый (Алексей Матвеев)
Аудио #4: Английский (AC3, 6 ch, 448 Кбит/с)
Субтитры: Русский (Forced, Blu-Ray, Notabenoid), английский (Full, SDH, SDH Colored)

Награды

Голодные игры (2012)
Золотой глобус, 2013 год
Номинации (1):
- Лучшая песня — «Safe and Sound»
Жорж, 2013 год
Номинации (2):
- Лучший зарубежный экшн
- Лучшая зарубежная драма
Сатурн, 2013 год
Победитель (1):
- Лучшая актриса (Дженнифер Лоуренс)
Номинации (1):
- Лучший научно-фантастический фильм
Премия канала «MTV», 2012 год
Победитель (4):
- Лучшая мужская роль (Джош Хатчерсон)
- Лучшая женская роль (Дженнифер Лоуренс)
- Лучшее экранное перевоплощение (Элизабет Бэнкс)
- Лучшая драка
Номинации (4):
- Лучший фильм
- Прорыв года (Лиам Хемсворт)
- Лучший актерский состав
- Лучший поцелуй
-----------------------------------------------------------------------
Голодные игры: И вспыхнет пламя (2013)
• Золотой глобус, 2014 год
Номинации (1):
- Лучшая песня — «Atlas»
• Премия канала «MTV», 2014 год
Победитель (3):
- Лучший фильм
- Лучшая мужская роль (Джош Хатчерсон)
- Лучшая женская роль (Дженнифер Лоуренс)
Номинации (4):
- Лучший злодей (Дональд Сазерленд)
- Лучшее исполнение роли без рубашки (Сэм Клафлин)
- Лучшее экранное перевоплощение (Элизабет Бэнкс)
- Лучшая драка
• Жорж, 2014 год
Номинации (2):
- Лучший зарубежный экшн
- Лучшая зарубежная драма
• Сатурн, 2014 год
Победитель (1):
- Лучшие костюмы
Номинации (6):
- Лучшая актриса (Дженнифер Лоуренс)
- Лучшая актриса второго плана (Джена Мэлоун)
- Лучший режиссер (Френсис Лоуренс)
- Лучший монтаж
- Лучший научно-фантастический фильм
- Лучшие декорации

Скачать семплы

http://multi-up.com/991642 - Голодные игры (2012)
http://multi-up.com/991696 - Голодные игры: И вспыхнет пламя (2013)

Инфо-файл

x264 [info]: frame I:1638 Avg QP:17.06 size: 70775
x264 [info]: frame P:60620 Avg QP:20.41 size: 21398
x264 [info]: frame B:142817 Avg QP:21.51 size: 8438
------------------------------------------------------------------
General
Unique ID : 218533606691977582373918623956820773580 (0xA4680AACBD6C71C8AF744A7951EB4ACC)
Complete name : The.Hunger.Games.Dilogy.2012-2013.BDRip.AVC.MediaClubThe.Hunger.Games.2012.BDRip.AVC.MediaClub.mkv
Format : Matroska
Format version : Version 4 / Version 2
File size : 3.78 GiB
Duration : 2h 22mn
Overall bit rate : 3 796 Kbps
Movie name : release MediaClub - MINION
Encoded date : UTC 2014-08-10 07:13:12
Writing application : mkvmerge v6.9.1 ('Blue Panther') 64bit built on Apr 18 2014 18:23:38
Writing library : libebml v1.3.0 + libmatroska v1.4.1
Video
ID : 1
Format : AVC
Format/Info : Advanced Video Codec
Format profile : High@L4.1
Format settings, CABAC : Yes
Format settings, ReFrames : 12 frames
Codec ID : V_MPEG4/ISO/AVC
Duration : 2h 22mn
Bit rate : 2 450 Kbps
Width : 1 024 pixels
Height : 426 pixels
Display aspect ratio : 2.40:1
Frame rate mode : Constant
Frame rate : 23.976 fps
Color space : YUV
Chroma subsampling : 4:2:0
Bit depth : 8 bits
Scan type : Progressive
Bits/(Pixel*Frame) : 0.234
Stream size : 2.37 GiB (63%)
Title : The Hunger Games 2012 BDRip-AVC [MediaClub - MINION]
Writing library : x264 core 142 r2431 ac76440
Encoding settings : cabac=1 / ref=12 / deblock=1:-3:-3 / analyse=0x3:0x133 / me=umh / subme=11 / psy=1 / psy_rd=1.00:0.10 / mixed_ref=1 / me_range=48 / chroma_me=1 / trellis=2 / 8x8dct=1 / cqm=0 / deadzone=21,11 / fast_pskip=0 / chroma_qp_offset=-3 / threads=6 / lookahead_threads=1 / sliced_threads=0 / nr=0 / decimate=0 / interlaced=0 / bluray_compat=0 / constrained_intra=0 / bframes=10 / b_pyramid=2 / b_adapt=2 / b_bias=0 / direct=3 / weightb=1 / open_gop=0 / weightp=2 / keyint=240 / keyint_min=23 / scenecut=40 / intra_refresh=0 / rc=2pass / mbtree=0 / bitrate=2450 / ratetol=1.0 / qcomp=0.60 / qpmin=10 / qpmax=51 / qpstep=4 / cplxblur=20.0 / qblur=0.5 / ip_ratio=1.40 / pb_ratio=1.30 / aq=1:1.00
Language : English
Default : Yes
Forced : No
Audio #1
ID : 2
Format : AC-3
Format/Info : Audio Coding 3
Mode extension : CM (complete main)
Format settings, Endianness : Big
Codec ID : A_AC3
Duration : 2h 22mn
Bit rate mode : Constant
Bit rate : 448 Kbps
Channel(s) : 6 channels
Channel positions : Front: L C R, Side: L R, LFE
Sampling rate : 48.0 KHz
Bit depth : 16 bits
Compression mode : Lossy
Stream size : 457 MiB (12%)
Title : DUB - Blu-Ray
Language : Russian
Default : Yes
Forced : No
Audio #2
ID : 3
Format : AC-3
Format/Info : Audio Coding 3
Mode extension : CM (complete main)
Format settings, Endianness : Big
Codec ID : A_AC3
Duration : 2h 22mn
Bit rate mode : Constant
Bit rate : 448 Kbps
Channel(s) : 6 channels
Channel positions : Front: L C R, Side: L R, LFE
Sampling rate : 48.0 KHz
Bit depth : 16 bits
Compression mode : Lossy
Stream size : 457 MiB (12%)
Title : AVO - Алексей Матвеев
Language : Russian
Default : No
Forced : No
Audio #3
ID : 4
Format : AC-3
Format/Info : Audio Coding 3
Mode extension : CM (complete main)
Format settings, Endianness : Big
Codec ID : A_AC3
Duration : 2h 22mn
Bit rate mode : Constant
Bit rate : 448 Kbps
Channel(s) : 6 channels
Channel positions : Front: L C R, Side: L R, LFE
Sampling rate : 48.0 KHz
Bit depth : 16 bits
Compression mode : Lossy
Stream size : 457 MiB (12%)
Language : English
Default : No
Forced : No
Text #1
ID : 5
Format : UTF-8
Codec ID : S_TEXT/UTF8
Codec ID/Info : UTF-8 Plain Text
Title : Full-1
Language : Russian
Default : No
Forced : No
Text #2
ID : 6
Format : UTF-8
Codec ID : S_TEXT/UTF8
Codec ID/Info : UTF-8 Plain Text
Title : Full-2
Language : Russian
Default : No
Forced : No
Text #3
ID : 7
Format : UTF-8
Codec ID : S_TEXT/UTF8
Codec ID/Info : UTF-8 Plain Text
Title : Voronine
Language : Russian
Default : No
Forced : No
Text #4
ID : 8
Format : UTF-8
Codec ID : S_TEXT/UTF8
Codec ID/Info : UTF-8 Plain Text
Title : MartinaG
Language : Russian
Default : No
Forced : No
Text #5
ID : 9
Format : UTF-8
Codec ID : S_TEXT/UTF8
Codec ID/Info : UTF-8 Plain Text
Title : Full
Language : English
Default : No
Forced : No
Text #6
ID : 10
Format : UTF-8
Codec ID : S_TEXT/UTF8
Codec ID/Info : UTF-8 Plain Text
Title : SDH
Language : English
Default : No
Forced : No
Menu
00:00:00.000 : :Chapter 01
00:10:05.813 : :Chapter 02
00:18:00.078 : :Chapter 03
00:25:05.879 : :Chapter 04
00:31:12.661 : :Chapter 05
00:43:28.564 : :Chapter 06
00:50:38.702 : :Chapter 07
00:56:58.915 : :Chapter 08
01:06:57.763 : :Chapter 09
01:15:58.970 : :Chapter 10
01:22:06.046 : :Chapter 11
01:29:00.417 : :Chapter 12
01:38:00.749 : :Chapter 13
01:43:19.192 : :Chapter 14
01:57:56.611 : :Chapter 15
02:09:26.550 : :Chapter 16
02:22:33.127 : :Chapter 17
============================================================================================================================
x264 [info]: frame I:1700 Avg QP:15.56 size: 59562
x264 [info]: frame P:49739 Avg QP:18.74 size: 18450
x264 [info]: frame B:158941 Avg QP:20.08 size: 5995
--------------------------------------------------------------------
General
Unique ID : 231820778849187419711495577139976163166 (0xAE670ED73B6ECFD5A18BA58A44B14F5E)
Complete name : The.Hunger.Games.Dilogy.2012-2013.BDRip.AVC.MediaClubThe.Hunger.Games.Catching.Fire.(IMAX.Edition).2013.BDRip.AVC.MediaClub.mkv
Format : Matroska
Format version : Version 4 / Version 2
File size : 3.67 GiB
Duration : 2h 26mn
Overall bit rate : 3 593 Kbps
Movie name : release MediaClub - MINION
Encoded date : UTC 2014-08-09 13:58:03
Writing application : mkvmerge v6.9.1 ('Blue Panther') 64bit built on Apr 18 2014 18:23:38
Writing library : libebml v1.3.0 + libmatroska v1.4.1
Video
ID : 1
Format : AVC
Format/Info : Advanced Video Codec
Format profile : High@L4.1
Format settings, CABAC : Yes
Format settings, ReFrames : 11 frames
Codec ID : V_MPEG4/ISO/AVC
Duration : 2h 26mn
Bit rate : 1 800 Kbps
Width : 1 024 pixels
Height : 576 pixels
Display aspect ratio : 16:9
Frame rate mode : Constant
Frame rate : 23.976 fps
Color space : YUV
Chroma subsampling : 4:2:0
Bit depth : 8 bits
Scan type : Progressive
Bits/(Pixel*Frame) : 0.127
Stream size : 1.77 GiB (48%)
Title : The Hunger Games: Catching Fire 2013 BDRip-AVC [MediaClub - MINION]
Writing library : x264 core 138 r2358 9e941d1
Encoding settings : cabac=1 / ref=11 / deblock=1:-3:-3 / analyse=0x3:0x133 / me=umh / subme=11 / psy=1 / psy_rd=1.00:0.10 / mixed_ref=1 / me_range=48 / chroma_me=1 / trellis=2 / 8x8dct=1 / cqm=0 / deadzone=21,11 / fast_pskip=0 / chroma_qp_offset=-3 / threads=6 / lookahead_threads=1 / sliced_threads=0 / nr=0 / decimate=0 / interlaced=0 / bluray_compat=0 / constrained_intra=0 / bframes=10 / b_pyramid=2 / b_adapt=2 / b_bias=0 / direct=3 / weightb=1 / open_gop=0 / weightp=2 / keyint=240 / keyint_min=23 / scenecut=40 / intra_refresh=0 / rc=2pass / mbtree=0 / bitrate=1800 / ratetol=1.0 / qcomp=0.60 / qpmin=10 / qpmax=51 / qpstep=4 / cplxblur=20.0 / qblur=0.5 / ip_ratio=1.40 / pb_ratio=1.30 / aq=1:1.00
Language : English
Default : Yes
Forced : No
Audio #1
ID : 2
Format : AC-3
Format/Info : Audio Coding 3
Mode extension : CM (complete main)
Format settings, Endianness : Big
Codec ID : A_AC3
Duration : 2h 26mn
Bit rate mode : Constant
Bit rate : 448 Kbps
Channel(s) : 6 channels
Channel positions : Front: L C R, Side: L R, LFE
Sampling rate : 48.0 KHz
Bit depth : 16 bits
Compression mode : Lossy
Stream size : 469 MiB (12%)
Title : DUB - Blu-ray
Language : Russian
Default : Yes
Forced : No
Audio #2
ID : 3
Format : AC-3
Format/Info : Audio Coding 3
Mode extension : CM (complete main)
Format settings, Endianness : Big
Codec ID : A_AC3
Duration : 2h 26mn
Bit rate mode : Constant
Bit rate : 448 Kbps
Channel(s) : 6 channels
Channel positions : Front: L C R, Side: L R, LFE
Sampling rate : 48.0 KHz
Bit depth : 16 bits
Compression mode : Lossy
Stream size : 469 MiB (12%)
Title : AVO - Юрий Сербин
Language : Russian
Default : No
Forced : No
Audio #3
ID : 4
Format : AC-3
Format/Info : Audio Coding 3
Mode extension : CM (complete main)
Format settings, Endianness : Big
Codec ID : A_AC3
Duration : 2h 26mn
Bit rate mode : Constant
Bit rate : 448 Kbps
Channel(s) : 6 channels
Channel positions : Front: L C R, Side: L R, LFE
Sampling rate : 48.0 KHz
Bit depth : 16 bits
Compression mode : Lossy
Stream size : 469 MiB (12%)
Title : AVO - Алексей Матвеев
Language : Russian
Default : No
Forced : No
Audio #4
ID : 5
Format : AC-3
Format/Info : Audio Coding 3
Mode extension : CM (complete main)
Format settings, Endianness : Big
Codec ID : A_AC3
Duration : 2h 26mn
Bit rate mode : Constant
Bit rate : 448 Kbps
Channel(s) : 6 channels
Channel positions : Front: L C R, Side: L R, LFE
Sampling rate : 48.0 KHz
Bit depth : 16 bits
Compression mode : Lossy
Stream size : 469 MiB (12%)
Language : English
Default : No
Forced : No
Text #1
ID : 6
Format : UTF-8
Codec ID : S_TEXT/UTF8
Codec ID/Info : UTF-8 Plain Text
Title : Forced (на надписи)
Language : Russian
Default : Yes
Forced : No
Text #2
ID : 7
Format : UTF-8
Codec ID : S_TEXT/UTF8
Codec ID/Info : UTF-8 Plain Text
Title : Blu-Ray
Language : Russian
Default : No
Forced : No
Text #3
ID : 8
Format : UTF-8
Codec ID : S_TEXT/UTF8
Codec ID/Info : UTF-8 Plain Text
Title : Notabenoid
Language : Russian
Default : No
Forced : No
Text #4
ID : 9
Format : UTF-8
Codec ID : S_TEXT/UTF8
Codec ID/Info : UTF-8 Plain Text
Title : Full
Language : English
Default : No
Forced : No
Text #5
ID : 10
Format : UTF-8
Codec ID : S_TEXT/UTF8
Codec ID/Info : UTF-8 Plain Text
Title : SDH
Language : English
Default : No
Forced : No
Text #6
ID : 11
Format : UTF-8
Codec ID : S_TEXT/UTF8
Codec ID/Info : UTF-8 Plain Text
Title : SDH Colored
Language : English
Default : No
Forced : No
Menu
00:00:00.000 : en:00:00:00.000
00:11:24.684 : en:00:11:24.684
00:16:48.049 : en:00:16:48.049
00:25:38.078 : en:00:25:38.078
00:35:51.649 : en:00:35:51.649
00:44:22.576 : en:00:44:22.576
00:52:12.921 : en:00:52:12.921
01:01:11.376 : en:01:01:11.376
01:08:12.213 : en:01:08:12.213
01:16:48.938 : en:01:16:48.938
01:22:39.663 : en:01:22:39.663
01:29:21.731 : en:01:29:21.731
01:40:43.913 : en:01:40:43.913
01:50:47.766 : en:01:50:47.766
02:02:46.984 : en:02:02:46.984
02:09:58.958 : en:02:09:58.958
Релиз от: |
[Профиль] [ЛС]
Показать сообщения:    

Текущее время: Сегодня 18:18

Часовой пояс: GMT



Вы не можете начинать темы
Вы не можете отвечать на сообщения
Вы не можете редактировать свои сообщения
Вы не можете удалять свои сообщения
Вы не можете голосовать в опросах
Вы не можете прикреплять файлы к сообщениям
Вы не можете скачивать файлы