Голограмма для короля / A Hologram for the King (2016) WEB-DL 1080p | iTunes

 
Автор Сообщение

достали все ®

Пол:

Стаж: 1 год 8 месяцев

Сообщений: 6545



Награды: 12 (Подробнее)

Top Releaser 4 (Количество: 1) Mega Seeder 4 (Количество: 1) Mega Seeder 2 (Количество: 1)
Торрент-статистика

Создавать темы 22-Июн-2016 02:19

[Цитировать]

Информация о фильме
Название: Голограмма для короля
Оригинальное название: A Hologram for the King
Год выхода: 2016
Жанр: комедия, драма
Режиссер: Том Тыквер
В ролях: Том Хэнкс, Александр Блэк, Сарита Чоудри, Сидсе Бабетт Кнудсен, Трэйси Фэирэуэй, Джейн Перри, Том Скеррит, Михаэль Бараль, Льюис Райнер, Александр Молкентин
О фильме: Алан Клей — муж, отец, бизнесмен. Но его бизнес терпит крах, его брак трещит по швам, и он не знает, где взять деньги на оплату обучения дочери. Чтобы избежать банкротства и разорвать замкнутый круг, Клей отправляется в Саудовскую Аравию, где он надеется продвинуть свой дерзкий технологический проект. Во время томительного ожидания встречи с королем Алан познает скрытые тайны арабского мира, которые преображают реальность, подобно голограмме. Никто не подозревал, чем обернется это путешествие к Красному морю…

Выпущено: Великобритания, Франция, Германия, США, Мексика
Продолжительность: 01:33:45
Озвучивание: Дублированное [iTunes]
Файл
Формат: MKV
Качество: WEB-DL 1080p
Видео: MPEG-4 AVC, 4382 kb/s, 1920x804
Аудио: AC3, 384 kb/s (6 ch)

MI

Format : Matroska
Format version : Version 4 / Version 2
File size : 3.18 GiB
Duration : 1h 33mn
Overall bit rate : 4 862 Kbps
Movie name : HOLOGRAM_FK_WEB_DL_1080p-BLUEBIRD
Encoded date : UTC 2016-06-21 18:45:51
Writing application : mkvmerge v7.1.0 ('Good Love') 64bit built on Jul 27 2014 13:06:55
Writing library : libebml v1.3.0 + libmatroska v1.4.1
DURATION : 01:33:44.896000000
NUMBER_OF_FRAMES : 175778
NUMBER_OF_BYTES : 269995008
_STATISTICS_WRITING_APP : mkvmerge v7.1.0 ('Good Love') 64bit built on Jul 27 2014 13:06:55
_STATISTICS_WRITING_DATE_UTC : 2016-06-21 18:45:51
_STATISTICS_TAGS : BPS DURATION NUMBER_OF_FRAMES NUMBER_OF_BYTES
Video
ID : 1
Format : AVC
Format/Info : Advanced Video Codec
Format profile : High@L4
Format settings, CABAC : Yes
Format settings, ReFrames : 5 frames
Codec ID : V_MPEG4/ISO/AVC
Duration : 1h 33mn
Bit rate : 4 382 Kbps
Width : 1 920 pixels
Height : 804 pixels
Display aspect ratio : 2.40:1
Frame rate mode : Constant
Frame rate : 25.000 fps
Color space : YUV
Chroma subsampling : 4:2:0
Bit depth : 8 bits
Scan type : Progressive
Bits/(Pixel*Frame) : 0.114
Stream size : 2.87 GiB (90%)
Title : HOLOGRAM_FK_WEB_DL_1080p-BLUEBIRD
Language : English
Default : Yes
Forced : No
Color range : Limited
Color primaries : BT.709
Transfer characteristics : BT.709
Matrix coefficients : BT.709
Audio
ID : 2
Format : AC-3
Format/Info : Audio Coding 3
Mode extension : CM (complete main)
Format settings, Endianness : Big
Codec ID : A_AC3
Duration : 1h 33mn
Bit rate mode : Constant
Bit rate : 384 Kbps
Channel(s) : 6 channels
Channel positions : Front: L C R, Side: L R, LFE
Sampling rate : 48.0 KHz
Bit depth : 16 bits
Compression mode : Lossy
Stream size : 257 MiB (8%)
Title : [DUB] DD 5.1 @ 384 kbps -iTunes
Language : Russian
Default : Yes
Forced : No
Menu
00:00:00.000 : en:Глава 1
00:05:58.600 : en:Глава 2
00:11:17.840 : en:Глава 3
00:16:37.040 : en:Глава 4
00:22:23.880 : en:Глава 5
00:27:41.400 : en:Глава 6
00:33:24.000 : en:Глава 7
00:39:02.920 : en:Глава 8
00:45:11.680 : en:Глава 9
00:50:17.640 : en:Глава 10
00:56:14.800 : en:Глава 11
01:02:13.560 : en:Глава 12
01:07:39.600 : en:Глава 13
01:13:21.240 : en:Глава 14
01:18:55.680 : en:Глава 15
01:23:58.560 : en:Глава 16

Скриншоты

Релиз:

[Профиль] [ЛС]
Показать сообщения:    

Текущее время: Сегодня 16:31

Часовой пояс: GMT



Вы не можете начинать темы
Вы не можете отвечать на сообщения
Вы не можете редактировать свои сообщения
Вы не можете удалять свои сообщения
Вы не можете голосовать в опросах
Вы не можете прикреплять файлы к сообщениям
Вы не можете скачивать файлы