Головоломка / Inside Out (2015) BDRip 720p от MediaClub | iTunes

 
Автор Сообщение

достали все ®

Пол:

Стаж: 1 год 8 месяцев

Сообщений: 6605



Награды: 12 (Подробнее)

Top Releaser 4 (Количество: 1) Mega Releaser 3 (Количество: 1) Mega Releaser 2 (Количество: 1)
Торрент-статистика

Создавать темы 22-Окт-2015 04:02

[Цитировать]

Информация о фильме
Название: Головоломка
Оригинальное название: Inside Out
Год выхода: 2015
Жанр: Мультфильм, комедия, полнометражный
Режиссер: Пит Доктер, Роналдо Дель Кармен
В ролях: Эми Полер, Филлис Смит, Ричард Кайнд, Билл Хейдер, Льюис Блэк, Минди Кейлинг, Кейтлин Диас, Дайан Лэйн, Кайл МакЛоклен, Пола Паундстон, Бобби Мойнахан, Паула Пелл, Дэйв Гольц, Фрэнк Оз, Джош Кули, Фли, Джон Ратценбергер, Карлос Аласраки, Питер Сэгал, Рашида Джонс
О фильме:
Райли — обычная 11-летняя школьница, и, как у каждого из нас, ее поведение определяют пять базовых эмоций: Радость, Печаль, Страх, Гнев и Брезгливость. Эмоции живут в сознании девочки и каждый день помогают ей справляться с проблемами, руководя всеми ее поступками. До поры до времени эмоции живут дружно, но вдруг оказывается, что Райли и ее родителям предстоит переезд из небольшого уютного городка в шумный и людный мегаполис. Каждая из эмоций считает, что именно она лучше прочих знает, что нужно делать в этой непростой ситуации, и в голове у девочки наступает полная неразбериха. Чтобы наладить жизнь в большом городе, освоиться в новой школе и подружиться с одноклассниками, эмоциям Райли предстоит снова научиться работать сообща.

Страна: США
Студия: Pixar Animation Studios, Walt Disney Pictures
Продолжительность: 01:34:50
Перевод: Дублированный + оригинал
Файл
Кодек: MPEG-4 AVC
Качество: BDRip 720p
Видео: MPEG-4 AVC, 3500 Кбит/с, 1280x720, 23.976 кадр/с
Аудио #1: Русский (AC3, 6 ch, 384 Кбит/с) | Дублированный (iTunes)
Аудио #2: Украинский (AC3, 6 ch, 384 Кбит/с) | Дублированный (iTunes)
Аудио #3: Английский (AC3, 6 ch, 448 Кбит/с)
Субтитры: Русские, английские
Семпл

MediaInfo

x264 [info]: frame I:1324 Avg QP:15.14 size:137196
x264 [info]: frame P:37616 Avg QP:18.46 size: 35131
x264 [info]: frame B:97513 Avg QP:19.63 size: 10122
Complete name : Golovolomka.2015.x264.BDRip.(720p)-MediaClub.mkv
Format : Matroska
Format version : Version 4 / Version 2
File size : 3.13 GiB
Duration : 1h 34mn
Overall bit rate : 4 718 Kbps
Movie name : = MediaClub = rip by Painter
Encoded date : UTC 2015-10-21 17:57:32
Writing application : mkvmerge v7.8.0 ('River Man') 32bit built on Mar 27 2015 16:18:02
Writing library : libebml v1.3.1 + libmatroska v1.4.2
DURATION : 01:26:48.579000000
NUMBER_OF_FRAMES : 1364
NUMBER_OF_BYTES : 48543
_STATISTICS_WRITING_APP : mkvmerge v7.8.0 ('River Man') 32bit built on Mar 27 2015 16:18:02
_STATISTICS_WRITING_DATE_UTC : 2015-10-21 17:57:32
_STATISTICS_TAGS : BPS DURATION NUMBER_OF_FRAMES NUMBER_OF_BYTES
Video
ID : 1
Format : AVC
Format/Info : Advanced Video Codec
Format profile : High@L4.1
Format settings, CABAC : Yes
Format settings, ReFrames : 9 frames
Codec ID : V_MPEG4/ISO/AVC
Duration : 1h 34mn
Bit rate : 3 500 Kbps
Width : 1 280 pixels
Height : 720 pixels
Display aspect ratio : 16:9
Frame rate mode : Constant
Frame rate : 23.976 fps
Color space : YUV
Chroma subsampling : 4:2:0
Bit depth : 8 bits
Scan type : Progressive
Bits/(Pixel*Frame) : 0.158
Stream size : 2.26 GiB (72%)
Writing library : x264 core 144 r2525 40bb568
Encoding settings : cabac=1 / ref=9 / deblock=1:-3:-3 / analyse=0x3:0x133 / me=umh / subme=11 / psy=1 / psy_rd=1.05:0.20 / mixed_ref=1 / me_range=32 / chroma_me=1 / trellis=2 / 8x8dct=1 / cqm=0 / deadzone=21,11 / fast_pskip=0 / chroma_qp_offset=-3 / threads=6 / lookahead_threads=1 / sliced_threads=0 / nr=0 / decimate=0 / interlaced=0 / bluray_compat=0 / constrained_intra=0 / bframes=10 / b_pyramid=2 / b_adapt=2 / b_bias=0 / direct=3 / weightb=1 / open_gop=0 / weightp=2 / keyint=240 / keyint_min=23 / scenecut=40 / intra_refresh=0 / rc=2pass / mbtree=0 / bitrate=3500 / ratetol=1.0 / qcomp=0.60 / qpmin=0 / qpmax=69 / qpstep=4 / cplxblur=20.0 / qblur=0.5 / ip_ratio=1.40 / pb_ratio=1.30 / aq=3:1.00
Language : English
Default : Yes
Forced : No
DURATION : 01:34:51.237000000
NUMBER_OF_FRAMES : 136453
NUMBER_OF_BYTES : 2490199570
_STATISTICS_WRITING_APP : mkvmerge v7.8.0 ('River Man') 32bit built on Mar 27 2015 16:18:02
_STATISTICS_WRITING_DATE_UTC : 2015-10-21 17:57:32
_STATISTICS_TAGS : BPS DURATION NUMBER_OF_FRAMES NUMBER_OF_BYTES
Audio #1
ID : 2
Format : AC-3
Format/Info : Audio Coding 3
Mode extension : CM (complete main)
Format settings, Endianness : Big
Codec ID : A_AC3
Duration : 1h 34mn
Bit rate mode : Constant
Bit rate : 384 Kbps
Channel(s) : 6 channels
Channel positions : Front: L C R, Side: L R, LFE
Sampling rate : 48.0 KHz
Bit depth : 16 bits
Compression mode : Lossy
Stream size : 261 MiB (8%)
Language : Russian
Default : Yes
Forced : No
Audio #2
ID : 3
Format : AC-3
Format/Info : Audio Coding 3
Mode extension : CM (complete main)
Format settings, Endianness : Big
Codec ID : A_AC3
Duration : 1h 34mn
Bit rate mode : Constant
Bit rate : 384 Kbps
Channel(s) : 6 channels
Channel positions : Front: L C R, Side: L R, LFE
Sampling rate : 48.0 KHz
Bit depth : 16 bits
Compression mode : Lossy
Stream size : 261 MiB (8%)
Language : Ukrainian
Default : No
Forced : No
Audio #3
ID : 4
Format : AC-3
Format/Info : Audio Coding 3
Mode extension : CM (complete main)
Format settings, Endianness : Big
Codec ID : A_AC3
Duration : 1h 34mn
Bit rate mode : Constant
Bit rate : 448 Kbps
Channel(s) : 6 channels
Channel positions : Front: L C R, Side: L R, LFE
Sampling rate : 48.0 KHz
Bit depth : 16 bits
Compression mode : Lossy
Stream size : 304 MiB (9%)
Language : English
Default : No
Forced : No
Text #1
ID : 5
Format : UTF-8
Codec ID : S_TEXT/UTF8
Codec ID/Info : UTF-8 Plain Text
Language : Russian
Default : No
Forced : No
Text #2
ID : 6
Format : UTF-8
Codec ID : S_TEXT/UTF8
Codec ID/Info : UTF-8 Plain Text
Language : English
Default : No
Forced : No
Menu
00:00:00.000 : :Chapter 01
00:07:22.692 : :Chapter 02
00:11:36.779 : :Chapter 03
00:15:46.403 : :Chapter 04
00:20:02.242 : :Chapter 05
00:25:21.436 : :Chapter 06
00:26:47.063 : :Chapter 07
00:30:10.183 : :Chapter 08
00:34:45.792 : :Chapter 09
00:36:02.285 : :Chapter 10
00:37:45.304 : :Chapter 11
00:41:27.359 : :Chapter 12
00:43:35.613 : :Chapter 13
00:45:19.508 : :Chapter 14
00:46:51.850 : :Chapter 15
00:50:02.457 : :Chapter 16
00:51:34.341 : :Chapter 17
00:56:12.160 : :Chapter 18
01:00:03.683 : :Chapter 19
01:01:17.840 : :Chapter 20
01:03:50.368 : :Chapter 21
01:06:27.191 : :Chapter 22
01:11:15.771 : :Chapter 23
01:13:40.541 : :Chapter 24
01:15:38.659 : :Chapter 25
01:20:00.337 : :Chapter 26
01:23:57.198 : :Chapter 27
01:26:18.339 : :Chapter 28
01:34:37.588 : :Chapter 29

Скриншоты


Релиз от:
За исходник спасибо BlueBird
[Профиль] [ЛС]
Кто просматривает тему:

Форум Тема Автор Размер
Apple, iOS, iPad, iPhone [iPad] Миллион способов потерять голову / A Million Ways to Die in the West (Сет МакФарлейн / Seth MacFarlane ) [2014, США, Комедия, вестерн, HDRip, SD (576p)] DUB + Original sergej644 1.98 GB
Фильмы (HD Rips | 720p, 1080p) Болото змееголовов / SnakeHead Swamp (2014) WEB-DL 720p | iTunes sergej644 2.75 GB
Фильмы 2014 года Босс в гостиной / Un boss in salotto (Лука Миньеро / Luca Miniero) [2014, Италия, комедия, DVDRip-AVC] VO (Игорь Головин) TorrentFilm 1.41 GB
Фильмы 2014 года Босс в гостиной / Un boss in salotto (Лука Миньеро / Luca Miniero) [2014, Италия, Комедия, HDRip] VO (Игорь Головин) TorrentFilm 745 MB
Фантастика, фэнтези Василий Головачёв - Сборник произведений (221 книга) [1975-2015, Боевая фантастика, Фантастика, FB2] Garik014 292 MB
История, биографии, религия и искусство Василий Ян | Нашествие монголов. Трилогия (2013) [MP3] sergej644 1.81 GB
R.G.TorrentFilm Video Военные сборы / Головорезы на сборах / Repmånad eller Hur man gör pojkar av män (Лассе Оберг / Lasse Åberg) [1979, Швеция, Комедия, DVDRip] VO (Ростислав Ганичев) + Sub (Rus) Один 777 1.38 GB
Кино СССР Всадник без головы (1973) DVDRip Russian Mafia 1.46 GB
Показать сообщения:    

Текущее время: Сегодня 09:06

Часовой пояс: GMT



Вы не можете начинать темы
Вы не можете отвечать на сообщения
Вы не можете редактировать свои сообщения
Вы не можете удалять свои сообщения
Вы не можете голосовать в опросах
Вы не можете прикреплять файлы к сообщениям
Вы не можете скачивать файлы