Голливудский финал / Hollywood Ending (2002) BDRip 1080p | P, P2, A

 
Автор Сообщение

Russian Mafia ®

Пол:

Стаж: 1 год 8 месяцев

Сообщений: 4256



Награды: 10 (Подробнее)

Top Releaser 5 (Количество: 1) Mega Seeder 2 (Количество: 1) Top Releaser 4 (Количество: 1)
Торрент-статистика

Создавать темы 02-Июн-2016 18:28

[Цитировать]

Название: Голливудский финал
Оригинальное название: Hollywood Ending
Год выхода: 2002
Страна: США
Студия: DreamWorks SKG, Gravier Productions, Perdido Productions
Продолжительность: 01:52:20
Жанр: мелодрама, комедия, ...
Режиссер: Вуди Аллен
В ролях: Вуди Аллен, Теа Леони, Джордж Хэмилтон, Дебра Мессинг, Марк Райделл, Трит Уильямс, Боб Дориан, Иван Мартин, Грегг Эдельман, Нил Хафф, ...
Перевод:
- Профессиональный (многоголосный, закадровый) R5
- Профессиональный (двуголосый, закадровый) FDV
- Авторский (одноголосый, закадровый) Живов Юрий Викторович
- Авторский (одноголосый, закадровый) Карповский Антон Сергеевич
О фильме: Для съемок нового суперхита боссы крупной киностудии нанимают капризного и непредсказуемого Вэла Ваксмана. Это подарок судьбы для всеми забытого обладателя двух «Оскаров», докатившегося до съемок рекламы. Вэл не хочет упустить шанс напомнить Голливуду о себе. Но вскоре из-за перенапряжения его поражает редкий недуг — истерическая слепота.
Теперь несчастному гению придется во всем положиться на помощь верных друзей. Чтобы любой ценой убедить работодателей, что его зрение так же остро. Как и его оригинальное творческое видение. Никто не знает, что ждет Вэла — фурор или провал, ведь еще никто не ставил столь рискованный эксперимент, снимая фильм вслепую!…

Кодек: x264
Качество: BDRip 1080p
Видео: 1908x1080, 14000 kbps, 24 fps
Аудио #1: AC-3, 2 ch, 192 kbps (Rus) - MVO R5
Аудио #2: AC-3, 2 ch, 192 kbps (Rus) - DVO FDV
Аудио #3: AC-3, 2 ch, 192 kbps (Rus) - AVO Живов Юрий Викторович
Аудио #4: AC-3, 2 ch, 192 kbps (Rus) - VO Карповский Антон Сергеевич
Аудио #5: AC-3, 2 ch, 192 kbps (Eng)
Субтитры: Английские

Дополнительная информация

За исходник спасибо - Burn in The USSR

MediaInfo

x264 [info]: frame I:794 Avg QP:18.20 size:198162
x264 [info]: frame P:29219 Avg QP:20.78 size:104383
x264 [info]: frame B:131747 Avg QP:22.38 size: 65143
x264 [info]: consecutive B-frames: 0.7% 0.6% 2.7% 10.7% 12.8% 58.6% 5.3% 1.7% 3.3% 0.7% 0.9% 1.1% 1.0%
Общее
Уникальный идентификатор : 217514201177889760823395843376357174324 (0xA3A3B61A3BDD589DA3154B50E8F1EC34)
Полное имя : Голливудский финал (Hollywood Ending) 2002 BDRip 1080p.mkv
Формат : Matroska
Версия формата : Version 2
Размер файла : 11,7 Гбайт
Продолжительность : 1 ч. 52 м.
Общий поток : 15,0 Мбит/сек
Дата кодирования : UTC 2016-05-31 17:01:16
Программа кодирования : mkvmerge v4.0.0 ('The Stars were mine') сборка от Jun 6 2010 16:18:42
Библиотека кодирования : libebml v1.0.0 + libmatroska v1.0.0
Видео
Идентификатор : 1
Формат : AVC
Формат/Информация : Advanced Video Codec
Профиль формата : High@L4.1
Параметр CABAC формата : Да
Параметр ReFrames формата : 4 кадра
Идентификатор кодека : V_MPEG4/ISO/AVC
Продолжительность : 1 ч. 52 м.
Битрейт : 14,0 Мбит/сек
Ширина : 1920 пикселей
Высота : 1080 пикселей
Соотношение сторон : 16:9
Режим частоты кадров : Постоянный
Частота кадров : 24,000 кадра/сек
Цветовое пространство : YUV
Субдискретизация насыщенности : 4:2:0
Битовая глубина : 8 бит
Тип развёртки : Прогрессивная
Бит/(Пиксели*Кадры) : 0.281
Размер потока : 10,7 Гбайт (92%)
Библиотека кодирования : x264 core 146 r2538 121396c
Настройки программы : cabac=1 / ref=4 / deblock=1:-3:-3 / analyse=0x3:0x133 / me=umh / subme=11 / psy=1 / psy_rd=1.10:0.16 / mixed_ref=1 / me_range=32 / chroma_me=1 / trellis=2 / 8x8dct=1 / cqm=0 / deadzone=21,11 / fast_pskip=0 / chroma_qp_offset=-3 / threads=12 / lookahead_threads=2 / sliced_threads=0 / nr=0 / decimate=0 / interlaced=0 / bluray_compat=0 / constrained_intra=0 / bframes=12 / b_pyramid=2 / b_adapt=2 / b_bias=0 / direct=3 / weightb=1 / open_gop=0 / weightp=2 / keyint=240 / keyint_min=24 / scenecut=40 / intra_refresh=0 / rc_lookahead=60 / rc=2pass / mbtree=0 / bitrate=14000 / ratetol=1.0 / qcomp=0.60 / qpmin=0 / qpmax=69 / qpstep=4 / cplxblur=20.0 / qblur=0.5 / vbv_maxrate=50000 / vbv_bufsize=62500 / nal_hrd=none / filler=0 / ip_ratio=1.40 / pb_ratio=1.30 / aq=1:0.90
Язык : English
Default : Нет
Forced : Нет
Аудио #1
Идентификатор : 2
Формат : AC-3
Формат/Информация : Audio Coding 3
Расширение режима : CM (complete main)
Параметр Endianness формата : Big
Идентификатор кодека : A_AC3
Продолжительность : 1 ч. 52 м.
Вид битрейта : Постоянный
Битрейт : 192 Кбит/сек
Каналы : 2 канала
Расположение каналов : Front: L R
Частота : 48,0 КГц
Метод сжатия : С потерями
Размер потока : 154 Мбайт (1%)
Заголовок : MVO R5
Язык : Russian
Default : Нет
Forced : Нет
Аудио #2
Идентификатор : 3
Формат : AC-3
Формат/Информация : Audio Coding 3
Расширение режима : CM (complete main)
Параметр Endianness формата : Big
Идентификатор кодека : A_AC3
Продолжительность : 1 ч. 52 м.
Вид битрейта : Постоянный
Битрейт : 192 Кбит/сек
Каналы : 2 канала
Расположение каналов : Front: L R
Частота : 48,0 КГц
Метод сжатия : С потерями
Размер потока : 154 Мбайт (1%)
Заголовок : DVO FDV
Язык : Russian
Default : Нет
Forced : Нет
Аудио #3
Идентификатор : 4
Формат : AC-3
Формат/Информация : Audio Coding 3
Расширение режима : CM (complete main)
Параметр Endianness формата : Big
Идентификатор кодека : A_AC3
Продолжительность : 1 ч. 52 м.
Вид битрейта : Постоянный
Битрейт : 192 Кбит/сек
Каналы : 2 канала
Расположение каналов : Front: L R
Частота : 48,0 КГц
Метод сжатия : С потерями
Размер потока : 154 Мбайт (1%)
Заголовок : AVO Живов Юрий Викторович
Язык : Russian
Default : Нет
Forced : Нет
Аудио #4
Идентификатор : 5
Формат : AC-3
Формат/Информация : Audio Coding 3
Расширение режима : CM (complete main)
Параметр Endianness формата : Big
Идентификатор кодека : A_AC3
Продолжительность : 1 ч. 52 м.
Вид битрейта : Постоянный
Битрейт : 192 Кбит/сек
Каналы : 2 канала
Расположение каналов : Front: L R
Частота : 48,0 КГц
Метод сжатия : С потерями
Размер потока : 154 Мбайт (1%)
Заголовок : VO Карповский Антон Сергеевич
Язык : Russian
Default : Нет
Forced : Нет
Аудио #5
Идентификатор : 6
Формат : AC-3
Формат/Информация : Audio Coding 3
Расширение режима : CM (complete main)
Параметр Endianness формата : Big
Идентификатор кодека : A_AC3
Продолжительность : 1 ч. 52 м.
Вид битрейта : Постоянный
Битрейт : 192 Кбит/сек
Каналы : 2 канала
Расположение каналов : Front: L R
Частота : 48,0 КГц
Метод сжатия : С потерями
Размер потока : 154 Мбайт (1%)
Язык : English
Default : Нет
Forced : Нет
Текст
Идентификатор : 7
Формат : UTF-8
Идентификатор кодека : S_TEXT/UTF8
Идентификатор кодека/Информация : UTF-8 Plain Text
Язык : English
Default : Нет
Forced : Нет

[Профиль] [ЛС]
Показать сообщения:    

Текущее время: Сегодня 00:31

Часовой пояс: GMT



Вы не можете начинать темы
Вы не можете отвечать на сообщения
Вы не можете редактировать свои сообщения
Вы не можете удалять свои сообщения
Вы не можете голосовать в опросах
Вы не можете прикреплять файлы к сообщениям
Вы не можете скачивать файлы