Год ежа / The Year of the Hedgehog (Курт Мюндл) [2009, Документальный, животные, познавательный, HDTVRip 720p]

 
Автор Сообщение

TorrentFilm ®

Пол:

Стаж: 2 года

Сообщений: 7741



Награды: Нет

Торрент-статистика

Создавать темы 22-Дек-2014 02:01

[Цитировать]

Год ежа / The Year of the Hedgehog
Год выпуска: 2009
Страна: Австрия
Студия: Produced by Power of Earth Productons for ORF
Жанр: Документальный, животные, познавательный
Продолжительность: 00:49:15
Доп. инфо о переводе: Первый ТВЧ
Режиссер: Курт Мюндл
Продюсер: Вальтер Кёлер
Описание: Весной, когда воздух прозрачен и тонок, а в лесах появились первые весенние цветы, из вороха листьев появляется мордочка – это ёж пробуждается от зимней спячки. Пришло время узнать о повадках этого животного!
Сэмпл: http://rusfolder.com/42498624
Тип релиза: HDTVRip 720p
Контейнер: MKV
Видео: MPEG-4 AVC, 4100 Кбит/с, 1280x720
Аудио: AC3, 6 ch, 448 Кбит/с

MediaInfo

GeneralUnique ID : 211772104000706692167693721679803945443 (0x9F51D2DA99D40B59BA9DF519366F91E3)Complete name : F:\Наладки\Год ежа The Year of the Hedgehog\Год ежа_720p.mkvFormat : MatroskaFormat version : Version 4 / Version 2File size : 1.56 GiBDuration : 49mn 15sOverall bit rate : 4 548 KbpsEncoded date : UTC 2014-12-09 20:16:27Writing application : mkvmerge v6.6.0 ('The Edge Of The In Between') built on Dec 1 2013 17:55:00Writing library : libebml v1.3.0 + libmatroska v1.4.1
VideoID : 1Format : AVCFormat/Info : Advanced Video CodecFormat profile : High@L4.1Format settings, CABAC : YesFormat settings, ReFrames : 9 framesCodec ID : V_MPEG4/ISO/AVCDuration : 49mn 15sBit rate : 4 100 KbpsWidth : 1 280 pixelsHeight : 720 pixelsDisplay aspect ratio : 16:9Frame rate mode : ConstantFrame rate : 25.000 fpsColor space : YUVChroma subsampling : 4:2:0Bit depth : 8 bitsScan type : ProgressiveBits/(Pixel*Frame) : 0.178Stream size : 1.38 GiB (88%)Writing library : x264 core 142 r2431 ac76440Encoding settings : cabac=1 / ref=9 / deblock=1:-1:-1 / analyse=0x3:0x133 / me=umh / subme=9 / psy=1 / psy_rd=1.00:0.10 / mixed_ref=1 / me_range=32 / chroma_me=1 / trellis=2 / 8x8dct=1 / cqm=0 / deadzone=21,11/ fast_pskip=1 / chroma_qp_offset=-3 / threads=6 / lookahead_threads=1 / sliced_threads=0 / nr=0 / decimate=0 / interlaced=0 / bluray_compat=0 / constrained_intra=0 / bframes=10 / b_pyramid=2 / b_adapt=2 / b_bias=0 / direct=3/ weightb=1 / open_gop=0 / weightp=2 / keyint=250 / keyint_min=23 / scenecut=40 / intra_refresh=0 / rc=2pass / mbtree=0 / bitrate=4100 / ratetol=1.0 / qcomp=0.60 / qpmin=0 / qpmax=69 / qpstep=4 / cplxblur=20.0 / qblur=0.5 / ip_ratio=1.40 / pb_ratio=1.30 / aq=1:1.00Language : EnglishDefault : YesForced : No
AudioID : 2Format : AC-3Format/Info : Audio Coding 3Mode extension : CM (complete main)Format settings, Endianness : BigCodec ID : A_AC3Duration : 49mn 15sBit rate mode : ConstantBit rate : 448 KbpsChannel(s) : 6 channelsChannel positions : Front: L C R, Side: L R, LFESampling rate : 48.0 KHzBit depth : 16 bitsCompression mode : LossyDelay relative to video : 118msStream size : 158 MiB (10%)Language : RussianDefault : YesForced : No

Скриншоты


[Профиль] [ЛС]
Кто просматривает тему:

Показать сообщения:    

Текущее время: Сегодня 22:10

Часовой пояс: GMT



Вы не можете начинать темы
Вы не можете отвечать на сообщения
Вы не можете редактировать свои сообщения
Вы не можете удалять свои сообщения
Вы не можете голосовать в опросах
Вы не можете прикреплять файлы к сообщениям
Вы не можете скачивать файлы