Годзилла / Godzilla (Гарет Эдвардс / Gareth Edwards) [2014 г., Фантастика, боевик, приключения, HDRip] Dub (Звук с TS)

 
Автор Сообщение

sergej644 ®

Пол:

Стаж: 4 года 11 месяцев

Сообщений: 6040

Откуда: Soviet Union



Награды: Нет

Торрент-статистика

Создавать темы 22-Авг-2014 10:23

[Цитировать]


-Годзилла / Godzilla- Производство: США, Япония, Warner Bros., Legendary Pictures, Disruption Entertainment
Год выпуска: 2014 г.
Жанр: Фантастика, боевик, приключения
Продолжительность: 01:56:30
Мировая премьера: 8 мая 2014
Российская премьера: 15 мая 2014, «Каро-Премьер»
Дата выхода DVD: 18 сентября 2014, «CP Дистрибуция»
Дата выхода Blu-Ray: 18 сентября 2014, «CP Дистрибуция»
Перевод: Профессиональный (полное дублирование) [Звук с TS]-Режиссер: Гарет Эдвардс / Gareth Edwards
В ролях: Аарон Тейлор-Джонсон, Брайан Крэнстон, Элизабет Олсен, Жюльет Бинош, Дэвид Стрэтэйрн, Кен Ватанабе, Салли Хокинс, Эл Сапьенза, Брайан Маркинсон, Ричард Т. Джонс-Описание: Человечество случайно разбудило гигантское древнее существо, что повлекло за собой ужасающие последствия…- -Качество видео: HDRip
Контейнер: AVI
Видео кодек: XviD
Аудио кодек: MP3
Видео: 720x304 (2.37:1), 23.976 fps, XviD build 50 ~1451 kbps avg, 0.28 bit/pixel
Аудио: 48 kHz, MPEG Layer 3, 2 ch, ~128.00 kbps avg
Cубтитры: Отсутствуют

Media Info

General
Complete name : D:\Godzilla.2014.Dt.HDRip.avi
Format : AVI
Format/Info : Audio Video Interleave
File size : 1.37 GiB
Duration : 2h 3mn
Overall bit rate : 1 589 Kbps
Writing application : VirtualDubMod 1.5.10.2 (build 2540/release)
Writing library : VirtualDubMod build 2540/release
Video
ID : 0
Format : MPEG-4 Visual
Format profile : Advanced Simple@L5
Format settings, BVOP : 2
Format settings, QPel : No
Format settings, GMC : No warppoints
Format settings, Matrix : Default (MPEG)
Codec ID : XVID
Codec ID/Hint : XviD
Duration : 2h 3mn
Bit rate : 1 452 Kbps
Width : 720 pixels
Height : 304 pixels
Display aspect ratio : 2.35:1
Frame rate : 23.976 fps
Color space : YUV
Chroma subsampling : 4:2:0
Bit depth : 8 bits
Scan type : Progressive
Compression mode : Lossy
Bits/(Pixel*Frame) : 0.277
Stream size : 1.25 GiB (91%)
Writing library : XviD 1.2.1 (UTC 2008-12-04)
Audio
ID : 1
Format : MPEG Audio
Format version : Version 1
Format profile : Layer 3
Mode : Joint stereo
Mode extension : MS Stereo
Codec ID : 55
Codec ID/Hint : MP3
Duration : 2h 3mn
Bit rate mode : Constant
Bit rate : 128 Kbps
Channel(s) : 2 channels
Sampling rate : 48.0 KHz
Compression mode : Lossy
Stream size : 113 MiB (8%)
Alignment : Aligned on interleaves
Interleave, duration : 42 ms (1.00 video frame)
Interleave, preload duration : 504 ms

Скриншоты

[Профиль] [ЛС]
Кто просматривает тему:

Форум Тема Автор Размер
Зарубежные Годзилла / Godzilla (2014) BDRip 1080p от Ash61 | 3D-Video | halfOU | Чистый звук | L1 sergej644 6.57 GB
Фильмы 2014 года Годзилла / Godzilla (Гарет Эдвардс / Gareth Edwards) [2014, США, Япония, фантастика, TeleSynch] Dub bot 691 MB
Фильмы 2014 года Годзилла / Godzilla (Гарет Эдвардс / Gareth Edwards) [2014, США, Япония, фантастика, боевик, приключения, TS Proper] Dub + Eng bot 2.14 GB
Фильмы 2016 года Годзилла / Shin Gojira (2016) WEBRip | L BOSS 1.37 GB
Зарубежные Годзилла 3Д / Godzilla 3D (Гарет Эдвардс / Gareth Edwards) [2014, США, Япония, фантастика, боевик, триллер, Blu-ray Disc 1080p] CEE BD3D TorrentFilm 41.43 GB
Зарубежные Годзилла в 3D / Godzilla 3D (Гарет Эдвардс) [2014 г., фантастика, боевик, приключения, BDRip 1080p] [Half SideBySide / Горизонтальная анаморфная стереопара] DUB [Чистый звук] + L VO [R.A.I.M.] + Eng... Zithylord 10.64 GB
Зарубежные Годзилла в 3Д / Godzilla 3D (Гарет Эдвардс / Gareth Edwards) [2014, Фантастика, боевик, триллер, BDremux, 1080p] BD3D TorrentFilm 32.2 GB
Зарубежные Годзилла в 3Д / Godzilla 3D (Гарет Эдвардс / Gareth Edwards) [2014, фантастика, боевик, триллер, BDRip-AVC] Half OverUnder / Вертикальная анаморфная стереопара TorrentFilm 11.11 GB
Показать сообщения:    

Текущее время: Сегодня 10:50

Часовой пояс: GMT



Вы не можете начинать темы
Вы не можете отвечать на сообщения
Вы не можете редактировать свои сообщения
Вы не можете удалять свои сообщения
Вы не можете голосовать в опросах
Вы не можете прикреплять файлы к сообщениям
Вы не можете скачивать файлы