Годзилла 2: Король монстров / Godzilla: King of the Monsters ( Майкл Догерти) [2019,Фантастика, фэнтези, боевик, приключения,BluRay 1080p] [iTunes+HDRezka+Ukr+ENG]+[Subs Rus+Ukr+ENG]

 
Author Message

Враг Нароода ®

Gender:

Longevity: 4 years 6 months

Posts: 308



: 2 ()

Mega Seeder 1 (1) За внесенный вклад в развитие сайта (1)
Торрент-статистика

Post 20-Aug-2019 14:09

[Quote]

--Годзилла 2: Король монстров / Godzilla: King of the Monsters -- --Год выпуска: 2019
Выпущено: США, Япония, Warner Bros., Legendary Entertainment, Toho Company
Жанр: Фантастика, фэнтези, боевик, приключения
Продолжительность: 02:11:35--Озвучка #1: Дублированный - iTunes - Русский
Озвучка #2: Профессиональный многоголосый - HDRezka Studio - Русский
Озвучка #3: Дублированный - iTunes - Украинский
Озвучка #4: Профессиональный многоголосый -Английский - Оригинал
Субтитры: Русские, Украинские,English, English SDH
--Релиз Без Рекламы --MDB 6.5 --Режиссеры:
Майкл Догерти--В ролях: Кайл Чандлер, Вера Фармига, Милли Бобби Браун, Кэн Ватанабэ, Цзыи Чжан, Брэдли Уитфорд, Салли Хокинс, Чарльз Дэнс, Томас Миддлдитч, Аиша Хайндс, О`Ши Джексон мл., Дэвид Стрэтэйрн, Энтони Рамос, Элизабет Ладлоу, Джонатан Ховард, Си Си Эйч Паундер, Джо Мортон, Тайлер Крумли, Келли Гарнер-- История рассказывает о героических усилиях криптозоологического агентства «Монарх» по сдерживанию гигантских монстров. В этот раз против могучего Годзиллы выступают Мотра, Родан и ультимативный кайдзю — трёхголовый монстр Кинг Гидора. Когда эти древние суперхищники, со временем превратившиеся в полузабытые мифы, восстают снова, чтобы сойтись в схватке, человечеству остаётся отойти в сторонку и постараться не погибнуть.-- --Качество : BluRay - HEVC 10bit - 1080p
Формат:MKV
Видео кодек: H265
Видео: 6936Кбит/сек,1920х816(2.35.1),в 23.976кадр/сек, HEVC (Main10@L4@Main)--Аудио Кодек:AC3 - True HD Atmos
Аудио #1: DUB -Rus- iTunes@DD5.1 AC3, 384 Kbps, 48.0 KHz, 6 ch- Русский
Аудио #2: MVO HDRezka Studio @DD5.1 AC3, 384 Kbps, 48.0 KHz, 6 ch - Русский
Аудио #3: DUB - Ukr- iTunes@DD5.1 AC3, 384 Kbps, 48.0 KHz, 6 ch- Украинский
Аудио #4: Original@DD5.1 AC3 ,640 Kbps, 48.0 KHz, 6 ch - - English
Аудио #5: Original@ True HD Atmos ,3797 Kbps, 48.0 KHz, 8 ch - - English--

Доп. информация:

Звуковая дорожка сделана путем наложения чистого голоса озвучивателей на центральный канал оригинальной дорожки. Качество идентично звуковой дорожке.
--

MediaInfo

Общее
Уникальный идентификатор : 322010123899765283246744025502343645512 (0xF240E4DD47442F0ABF3CA1AE24FE4948)
Полное имя : C:\Nikolai.Baranov & PIRATIYA\Godzilla.King.of.the.Monsters.2019.HEVC- 10Bit_Н265_DD5.1_N.B_BluRay.1080p.2хRus_Ukr_Eng\Godzilla.King.of.the.Monsters.2019.HEVC_DD5.1_N.B_BluRay.1080p.2хRus_Ukr_Eng.mkv
Формат : Matroska
Версия формата : Version 4
Размер файла : 11,6 Гбайт
Продолжительность : 2 ч. 11 м.
Режим общего битрейта : Переменный
Общий поток : 12,6 Мбит/сек
Название фильма : Godzilla King of the Monsters 2019 BluRay 1080p @ Nikolai.Baranov & PIRATIYA
Дата кодирования : UTC 2019-08-20 09:12:35
Программа кодирования : mkvmerge v36.0.0 ('Is That Jazz?') 64-bit
Библиотека кодирования : libebml v1.3.9 + libmatroska v1.5.2
Видео
Идентификатор : 1
Формат : HEVC
Формат/Информация : High Efficiency Video Coding
Профиль формата : Main 10@L4.1@High
Идентификатор кодека : V_MPEGH/ISO/HEVC
Продолжительность : 2 ч. 11 м.
Битрейт : 6936 Кбит/сек
Ширина : 1920 пикселей
Высота : 800 пикселей
Соотношение сторон : 2,40:1
Режим частоты кадров : Постоянный
Частота кадров : 23,976 (24000/1001) кадра/сек
Цветовое пространство : YUV
Субдискретизация насыщенности : 4:2:0
Битовая глубина : 10 бит
Бит/(Пиксели*Кадры) : 0.188
Размер потока : 6,38 Гбайт (55%)
Заголовок : Godzilla.King.of.the.Monsters.2019.HEVC_DD5.1_N.B_BluRay.1080p.2хRus_Ukr_Eng
Язык : Russian
Default : Да
Forced : Нет
Цветовой диапазон : Limited
Основные цвета : BT.709
Характеристики трансфера : BT.709
Коэффициенты матрицы : BT.709
Аудио #1
Идентификатор : 7
Формат : AC-3
Формат/Информация : Audio Coding 3
Коммерческое название : Dolby Digital
Идентификатор кодека : A_AC3
Продолжительность : 2 ч. 11 м.
Вид битрейта : Постоянный
Битрейт : 384 Кбит/сек
Каналы : 6 каналов
ChannelLayout : L R C LFE Ls Rs
Частота : 48,0 КГц
Частота кадров : 31,250 кадров/сек (1536 SPF)
Битовая глубина : 16 бит
Метод сжатия : С потерями
Размер потока : 362 Мбайт (3%)
Заголовок : DUB -Rus- iTunes@DD5.1 AC3, 384 Kbps, 48.0 KHz, 6 ch
Язык : Russian
ServiceKind/String : Complete Main
Default : Да
Forced : Нет
Аудио #2
Идентификатор : 8
Формат : AC-3
Формат/Информация : Audio Coding 3
Коммерческое название : Dolby Digital
Идентификатор кодека : A_AC3
Продолжительность : 2 ч. 11 м.
Вид битрейта : Постоянный
Битрейт : 384 Кбит/сек
Каналы : 6 каналов
ChannelLayout : L R C LFE Ls Rs
Частота : 48,0 КГц
Частота кадров : 31,250 кадров/сек (1536 SPF)
Битовая глубина : 16 бит
Метод сжатия : С потерями
Размер потока : 362 Мбайт (3%)
Заголовок : MVO HDRezka Studio @DD5.1 AC3, 384 Kbps, 48.0 KHz, 6 ch
Язык : Russian
ServiceKind/String : Complete Main
Default : Нет
Forced : Нет
Аудио #3
Идентификатор : 9
Формат : AC-3
Формат/Информация : Audio Coding 3
Коммерческое название : Dolby Digital
Идентификатор кодека : A_AC3
Продолжительность : 2 ч. 11 м.
Вид битрейта : Постоянный
Битрейт : 384 Кбит/сек
Каналы : 6 каналов
ChannelLayout : L R C LFE Ls Rs
Частота : 48,0 КГц
Частота кадров : 31,250 кадров/сек (1536 SPF)
Битовая глубина : 16 бит
Метод сжатия : С потерями
Размер потока : 362 Мбайт (3%)
Заголовок : DUB - Ukr- iTunes@DD5.1 AC3, 384 Kbps, 48.0 KHz, 6 ch
Язык : Ukrainian
ServiceKind/String : Complete Main
Default : Нет
Forced : Нет
Аудио #4
Идентификатор : 10
Формат : AC-3
Формат/Информация : Audio Coding 3
Коммерческое название : Dolby Digital
Идентификатор кодека : A_AC3
Продолжительность : 2 ч. 11 м.
Вид битрейта : Постоянный
Битрейт : 640 Кбит/сек
Каналы : 6 каналов
ChannelLayout : L R C LFE Ls Rs
Частота : 48,0 КГц
Частота кадров : 31,250 кадров/сек (1536 SPF)
Битовая глубина : 16 бит
Метод сжатия : С потерями
Размер потока : 603 Мбайт (5%)
Заголовок : Original@DD5.1 AC3 ,640 Kbps, 48.0 KHz, 6 ch
Язык : English
ServiceKind/String : Complete Main
Default : Нет
Forced : Нет
Аудио #5
Идентификатор : 11
Формат : MLP FBA 16-ch
Формат/Информация : Meridian Lossless Packing FBA with 16-channel presentation
Коммерческое название : Dolby TrueHD with Dolby Atmos
Идентификатор кодека : A_TRUEHD
Продолжительность : 2 ч. 11 м.
Вид битрейта : Переменный
Битрейт : 3797 Кбит/сек
Максимальный битрейт : 6537 Кбит/сек
Каналы : 8 каналов
ChannelLayout : L R C LFE Ls Rs Lb Rb
Частота : 48,0 КГц
Частота кадров : 1200,000 кадров/сек (40 SPF)
Метод сжатия : Без потерь
Размер потока : 3,49 Гбайт (30%)
Заголовок : Original@ True HD Atmos ,3797 Kbps, 48.0 KHz, 8 ch
Язык : English
Default : Нет
Forced : Нет
NumberOfDynamicObjects : 15
BedChannelCount/String : 1 канал
BedChannelConfiguration : LFE
Текст #1
Идентификатор : 2
Формат : UTF-8
Идентификатор кодека : S_TEXT/UTF8
Идентификатор кодека/Информация : UTF-8 Plain Text
Продолжительность : 2 ч. 8 м.
Битрейт : 1 бит/сек
ElementCount : 24
Размер потока : 1,42 Кбайт (0%)
Заголовок : Russian-Forced
Язык : Russian
Default : Да
Forced : Нет
Текст #2
Идентификатор : 3
Формат : UTF-8
Идентификатор кодека : S_TEXT/UTF8
Идентификатор кодека/Информация : UTF-8 Plain Text
Продолжительность : 2 ч. 10 м.
Битрейт : 77 бит/сек
ElementCount : 1372
Размер потока : 74,2 Кбайт (0%)
Заголовок : Russian
Язык : Russian
Default : Нет
Forced : Нет
Текст #3
Идентификатор : 4
Формат : UTF-8
Идентификатор кодека : S_TEXT/UTF8
Идентификатор кодека/Информация : UTF-8 Plain Text
Продолжительность : 2 ч. 9 м.
Битрейт : 5 бит/сек
ElementCount : 73
Размер потока : 4,92 Кбайт (0%)
Заголовок : Ukr-Forced
Язык : Ukrainian
Default : Нет
Forced : Нет
Текст #4
Идентификатор : 5
Формат : UTF-8
Идентификатор кодека : S_TEXT/UTF8
Идентификатор кодека/Информация : UTF-8 Plain Text
Продолжительность : 2 ч. 11 м.
Битрейт : 51 бит/сек
ElementCount : 1857
Размер потока : 49,7 Кбайт (0%)
Заголовок : Original - SDH
Язык : English
Default : Нет
Forced : Нет
Текст #5
Идентификатор : 6
Формат : UTF-8
Идентификатор кодека : S_TEXT/UTF8
Идентификатор кодека/Информация : UTF-8 Plain Text
Продолжительность : 2 ч. 10 м.
Битрейт : 42 бит/сек
ElementCount : 1482
Размер потока : 40,9 Кбайт (0%)
Заголовок : Original
Язык : English
Default : Нет
Forced : Нет
Меню
00:00:00.000 : en:00:00:00.000
00:10:53.903 : en:00:10:53.903
00:18:06.836 : en:00:18:06.836
00:30:27.325 : en:00:30:27.325
00:45:18.633 : en:00:45:18.633
00:54:11.039 : en:00:54:11.039
01:05:41.646 : en:01:05:41.646
01:09:31.584 : en:01:09:31.584
01:19:31.308 : en:01:19:31.308
01:30:06.234 : en:01:30:06.234
01:38:36.869 : en:01:38:36.869
01:49:58.884 : en:01:49:58.884
01:59:28.828 : en:01:59:28.828
--

Скриншоты

-- -- -- --Релиз от: Nikolai.Baranov & PIRATIYA . Поблагодарить:
ЯД: 410017546713876
-- -- -- --Время раздачи : 24/7--
[Profile] [PM]
Display posts from previous:    

The time now is: Today 04:31

All times are GMT



You cannot post new topics in this forum
You cannot reply to topics in this forum
You cannot edit your posts in this forum
You cannot delete your posts in this forum
You cannot vote in polls in this forum
You cannot attach files in this forum
You cannot download files in this forum