Гоголь. Страшная месть (2018) WEB-DL 1080p | iTunes

 
Author Message

BOSS ®

Gender:

Longevity: 4 years 8 months

Posts: 14114

Location: ODESSA



: 22 ()

Top Releaser 4 (1) Mega Seeder 2 (1) За внесенный вклад в развитие сайта (1)
Торрент-статистика

Post 10-Oct-2018 17:34

[Quote]

«Начни с финала»
Информация о фильме
Название: Гоголь. Страшная месть
Год выпуска: 2018
Жанр: Детектив, приключения, триллер
Режиссёр: Егор Баранов
В ролях: Александр Петров, Олег Меньшиков, Евгений Стычкин, Артем Сучков, Таисия Вилкова, Юлия Франц, Ян Цапник, Евгений Сытый, Сергей Бадюк, Артем Ткаченко
Описание:
Две сотни лет назад малороссийские хутора разоряла шайка нехристей-ляхов во главе с могущественным колдуном. С тех пор рыщет в окрестностях Диканьки неизвестный Чёрный Всадник, ловит молодых девушек и жестоко расправляется с ними, будто мстит за что. И следующей его жертвой может стать Лиза. Чтобы спасти возлюбленную, писарь Николай Гоголь должен разбить злые чары и победить древнее проклятье. Ни одному из смертных ещё не удавалось это, но к счастью, на помощь Гоголю приходит гениальный столичный сыщик Яков Гуро, и у него уже есть главный подозреваемый…

Страна: Россия
Студия: Продюсерская компания «Среда»
Продолжительность: 01:46:38
Язык: Русский
Файл
Формат: MKV
Качество: WEB-DL 1080p
Видео: 1908x796 (2.40:1), 23,976 fps, MPEG-4 AVC ~ 4497 kbps avg, 0.124 bit/pixel
Звук: AC3, 48 kHz, 6 ch, ~384.00 kbps avg | русский | iTunes
Субтитры: Отсутствуют

Инфо-файл

Общее
Уникальный идентификатор : 228905047669747027980878242429192510815 (0xAC358231D4A558C5E35C279C2B621D5F)
Полное имя : D:TorrentsЗавершенныеGOGOL_STRASHNAY_MEST (2018) WEB-DL 1080p.mkv
Формат : Matroska
Версия формата : Version 4 / Version 2
Размер файла : 3,64 Гбайт
Продолжительность : 1 ч. 46 м.
Общий поток : 4883 Кбит/сек
Название фильма : GOGOL_STRASHNAY_MEST (2018) WEB-DL 1080p
Дата кодирования : UTC 2018-10-09 19:20:54
Программа кодирования : mkvmerge v27.0.0 ('Metropolis') 64-bit
Библиотека кодирования : libebml v1.3.6 + libmatroska v1.4.9
Видео
Идентификатор : 1
Формат : AVC
Формат/Информация : Advanced Video Codec
Профиль формата : High@L4
Настройки формата : CABAC / 5 Ref Frames
Параметр CABAC формата : Да
Параметр RefFrames формата : 5 кадров
Идентификатор кодека : V_MPEG4/ISO/AVC
Продолжительность : 1 ч. 46 м.
Битрейт : 4497 Кбит/сек
Ширина : 1908 пикселей
Высота : 796 пикселей
Соотношение сторон : 2,40:1
Режим частоты кадров : Постоянный
Частота кадров : 23,976 (24000/1001) кадра/сек
Цветовое пространство : YUV
Субдискретизация насыщенности : 4:2:0
Битовая глубина : 8 бит
Тип развёртки : Прогрессивная
Бит/(Пиксели*Кадры) : 0.124
Размер потока : 3,35 Гбайт (92%)
Заголовок : GOGOL_STRASHNAY_MEST (2018) WEB-DL 1080p
Язык : English
Default : Да
Forced : Нет
Цветовой диапазон : Limited
Основные цвета : BT.709
Характеристики трансфера : BT.709
Коэффициенты матрицы : BT.709
Аудио
Идентификатор : 2
Формат : AC-3
Формат/Информация : Audio Coding 3
Идентификатор кодека : A_AC3
Продолжительность : 1 ч. 46 м.
Вид битрейта : Постоянный
Битрейт : 384 Кбит/сек
Каналы : 6 каналов
Расположение каналов : Front: L C R, Side: L R, LFE
Частота : 48,0 КГц
Частота кадров : 31,250 кадров/сек (1536 SPF)
Битовая глубина : 16 бит
Метод сжатия : С потерями
Размер потока : 293 Мбайт (8%)
Заголовок : iTunes
Язык : Russian
Default : Да
Forced : Нет
Меню
00:00:00.000 : en:1
00:02:58.000 : en:2
00:14:09.000 : en:3
00:25:12.000 : en:4
00:36:51.000 : en:5
00:45:53.000 : en:6
00:55:19.000 : en:7
01:04:47.000 : en:8
01:15:03.000 : en:9
01:25:43.000 : en:10
01:33:03.000 : en:11
01:42:17.000 : en:12

Скриншоты

[Profile] [PM]
Display posts from previous:    

The time now is: Today 17:38

All times are GMT



You cannot post new topics in this forum
You cannot reply to topics in this forum
You cannot edit your posts in this forum
You cannot delete your posts in this forum
You cannot vote in polls in this forum
You cannot attach files in this forum
You cannot download files in this forum