Гнев / Man on Fire (2004) BDRip 1080p от R.G. HD-Films | 60 fps

 
Автор Сообщение

sergej644 ®

Пол:

Стаж: 4 года 11 месяцев

Сообщений: 6038

Откуда: Soviet Union



Награды: Нет

Торрент-статистика

Создавать темы 12-Ноя-2014 20:38

[Цитировать]

-Название: Гнев
Оригинальное название: Man on Fire
Год выпуска: 2004
Страна: США, Великобритания
Жанр: боевик, триллер, драма
Продолжительность: 02:26:07
Перевод: Дубляж
Субтитры: русские (Форсированные), русские (Полные), английские (Форсированные), английские (Полные)-Режиссер: Тони Скотт / Tony Scott-В ролях: Дензел Вашингтон (Joyhn W. Creasy), Дакота Фаннинг (Lupita Ramos), Рада Митчелл (Lisa Ramos), Кристофер Уокен (Paul Rayburn), Марк Энтони (Samuel Ramos), Джанкарло Джаннини (Miguel Manzano), Микки Рурк (Jordan Kalfus), Рэйчел Тикотин (Mariana Garcia Guerrero), Густаво Санчес Парра (Daniel Sanchez), Хесус Очоа (Victor Fuentes), Джеро Камило (Aurelio Sanchez), Марио Сарагоса (Jorge Gonzalez)-Описание:
Состоятельные жители Мехико в панике: всего за шесть дней в городе пропали 24 человека! Бывшего агента ЦРУ Джона Кризи нанимают телохранителем девятилетней дочери промышленника Сэмюэля Рамоса, Питы Рамос. Поначалу Кризи с трудом терпит соседство не по годам развитой девочки.
Но со временем они становятся друзьями. Кризи вновь почувствовал вкус к жизни, но все рушится, когда Питу похищают. Кризи клянется убить любого, кто втянут в похищение Питы. Теперь его никто не остановит...-Рейтинг

imdb.com: 7.80 (217 381)
MPAA: R - Лицам до 17 лет обязательно присутствие взрослого-Автор рипа:Tiberiumsun69-Качество: BDRip 1080p / 60 FPS
Формат: MKV
Видео кодек: AVC
Аудио кодек:AC3, DTS
Видео: AVC, 1920x800, 14000 kbps, 59,940 fps
Аудио №1: русский / AC3 / 5.1 / 48 kHz / 640 kbps / 16 bit |Дубляж|
Аудио №2: русский / AC3 / 5.1 / 48 kHz / 640 kbps / 16 bit |Многоголосый, закадровый Киномания|
Аудио №3: русский / AC3 / 5.1 / 48 kHz / 448 kbps / 16 bit |Двухголосый, закадровый Tycoon|
Аудио №4: английский / AC3 / 5.1 / 48 kHz / 640 kbps / 16 bit
Аудио №5: русский / DTS / 5.1 / 48 kHz / 755 kbps / 24 bit |Дубляж|
Навигация по главам: есть- -

MI

General
Unique ID : 248672876672586157786674829913714059139 (0xBB14A7698899530C919EE7532DE3E783)
Complete name : A:1080p 60fpsГнев 1080p 60fps.mkv
Format : Matroska
Format version : Version 4 / Version 2
File size : 17.5 GiB
Duration : 2h 26mn
Overall bit rate : 17.1 Mbps
Encoded date : UTC 2014-10-17 11:19:41
Writing application : mkvmerge v6.9.1 ('Blue Panther') 64bit built on Apr 18 2014 18:23:38
Writing library : libebml v1.3.0 + libmatroska v1.4.1
Video
ID : 1
Format : AVC
Format/Info : Advanced Video Codec
Format profile : High@L4.1
Format settings, CABAC : Yes
Format settings, ReFrames : 4 frames
Codec ID : V_MPEG4/ISO/AVC
Duration : 2h 26mn
Bit rate : 14.0 Mbps
Width : 1 920 pixels
Height : 800 pixels
Display aspect ratio : 2.40:1
Frame rate : 59.940 fps
Color space : YUV
Chroma subsampling : 4:2:0
Bit depth : 8 bits
Scan type : Progressive
Bits/(Pixel*Frame) : 0.152
Stream size : 14.0 GiB (80%)
Writing library : x264 core 130 r2273 b3065e6
Encoding settings : cabac=1 / ref=4 / deblock=1:-1:-1 / analyse=0x3:0 / me=umh / subme=9 / psy=1 / psy_rd=1.00:0.00 / mixed_ref=1 / me_range=44 / chroma_me=0 / trellis=2 / 8x8dct=1 / cqm=0 / deadzone=21,11 / fast_pskip=0 / chroma_qp_offset=-2 / threads=12 / lookahead_threads=1 / sliced_threads=0 / nr=0 / decimate=0 / interlaced=0 / bluray_compat=0 / constrained_intra=0 / bframes=5 / b_pyramid=2 / b_adapt=2 / b_bias=0 / direct=3 / weightb=1 / open_gop=0 / weightp=2 / keyint=250 / keyint_min=59 / scenecut=40 / intra_refresh=0 / rc_lookahead=60 / rc=2pass / mbtree=1 / bitrate=14000 / ratetol=1.0 / qcomp=0.80 / qpmin=0 / qpmax=69 / qpstep=4 / cplxblur=20.0 / qblur=0.5 / ip_ratio=1.40 / aq=1:0.80
Language : English
Default : Yes
Forced : No
Audio #1
ID : 2
Format : AC-3
Format/Info : Audio Coding 3
Mode extension : CM (complete main)
Codec ID : A_AC3
Duration : 2h 26mn
Bit rate mode : Constant
Bit rate : 640 Kbps
Channel(s) : 6 channels
Channel positions : Front: L C R, Side: L R, LFE
Sampling rate : 48.0 KHz
Bit depth : 16 bits
Compression mode : Lossy
Stream size : 669 MiB (4%)
Title : Дубляж
Language : Russian
Default : Yes
Forced : No
Audio #2
ID : 3
Format : AC-3
Format/Info : Audio Coding 3
Mode extension : CM (complete main)
Codec ID : A_AC3
Duration : 2h 26mn
Bit rate mode : Constant
Bit rate : 640 Kbps
Channel(s) : 6 channels
Channel positions : Front: L C R, Side: L R, LFE
Sampling rate : 48.0 KHz
Bit depth : 16 bits
Compression mode : Lossy
Stream size : 669 MiB (4%)
Title : Многоголосый, закадровый Киномания
Language : Russian
Default : No
Forced : No
Audio #3
ID : 4
Format : AC-3
Format/Info : Audio Coding 3
Mode extension : CM (complete main)
Codec ID : A_AC3
Duration : 2h 26mn
Bit rate mode : Constant
Bit rate : 448 Kbps
Channel(s) : 6 channels
Channel positions : Front: L C R, Side: L R, LFE
Sampling rate : 48.0 KHz
Bit depth : 16 bits
Compression mode : Lossy
Stream size : 468 MiB (3%)
Title : Двухголосый, закадровый Tycoon
Language : Russian
Default : No
Forced : No
Audio #4
ID : 5
Format : AC-3
Format/Info : Audio Coding 3
Mode extension : CM (complete main)
Codec ID : A_AC3
Duration : 2h 26mn
Bit rate mode : Constant
Bit rate : 640 Kbps
Channel(s) : 6 channels
Channel positions : Front: L C R, Side: L R, LFE
Sampling rate : 48.0 KHz
Bit depth : 16 bits
Compression mode : Lossy
Stream size : 669 MiB (4%)
Title : Оригинал
Language : English
Default : No
Forced : No
Audio #5
ID : 6
Format : DTS
Format/Info : Digital Theater Systems
Codec ID : A_DTS
Duration : 2h 26mn
Bit rate mode : Constant
Bit rate : 755 Kbps
Channel(s) : 6 channels
Channel positions : Front: L C R, Side: L R, LFE
Sampling rate : 48.0 KHz
Bit depth : 24 bits
Compression mode : Lossy
Stream size : 789 MiB (4%)
Title : Дубляж
Language : Russian
Default : No
Forced : No
Text #1
ID : 7
Format : UTF-8
Codec ID : S_TEXT/UTF8
Codec ID/Info : UTF-8 Plain Text
Title : Форсированные
Language : Russian
Default : Yes
Forced : No
Text #2
ID : 8
Format : UTF-8
Codec ID : S_TEXT/UTF8
Codec ID/Info : UTF-8 Plain Text
Title : Полные
Language : Russian
Default : No
Forced : No
Text #3
ID : 9
Format : UTF-8
Codec ID : S_TEXT/UTF8
Codec ID/Info : UTF-8 Plain Text
Title : Форсированные
Language : English
Default : No
Forced : No
Text #4
ID : 10
Format : UTF-8
Codec ID : S_TEXT/UTF8
Codec ID/Info : UTF-8 Plain Text
Title : Полные
Language : English
Default : No
Forced : No
Menu
00:00:00.000 : en:Main Titles
00:03:53.399 : en:On Impulse
00:06:44.570 : en:Unprotected
00:11:11.045 : en:Settling In
00:18:14.343 : en:The Hand Of God
00:22:09.411 : en:New Toy
00:26:30.922 : en:Failure To Fire
00:30:19.776 : en:On Edge
00:35:19.867 : en:No Fear
00:40:31.595 : en:In Loco Parents
00:45:46.034 : en:The Piano Lesson
00:49:35.013 : en:Outgunned
00:53:02.971 : en:Police Assistance
00:57:55.346 : en:Negotiations
01:00:42.305 : en:The Drop
01:04:07.760 : en:On The Road To Recovery
01:08:00.326 : en:Lois Lane
01:12:02.818 : en:The Quest Begins
01:18:55.105 : en:Extracting Information
01:26:57.420 : en:At The Rave
01:31:09.380 : en:Bonfire
01:36:51.555 : en:Masterpiece
01:39:20.079 : en:Paging The President
01:49:05.455 : en:The Truth
01:57:25.246 : en:The Voice
02:07:38.025 : en:A Life For A Life
02:13:32.129 : en:Going Home
02:20:19.994 : en:End Titles

Скриншоты

--
[Профиль] [ЛС]
Показать сообщения:    

Текущее время: Сегодня 04:14

Часовой пояс: GMT



Вы не можете начинать темы
Вы не можете отвечать на сообщения
Вы не можете редактировать свои сообщения
Вы не можете удалять свои сообщения
Вы не можете голосовать в опросах
Вы не можете прикреплять файлы к сообщениям
Вы не можете скачивать файлы