Гнев / Man on Fire (2004) BDRip [720p]

 
Автор Сообщение

sergej644 ®

Пол:

Стаж: 4 года 11 месяцев

Сообщений: 6046

Откуда: Soviet Union



Награды: Нет

Торрент-статистика

Создавать темы 11-Ноя-2014 11:28

[Цитировать]

-Гнев / Man on Fire (2004) BDRip«Убить любого, кто в это втянут»- Год выпуска: 2004
Производство: USA, U.K. / Fox 2000 Pictures, Regency Enterprises, New Regency Pictures
Жанр: боевик, триллер, драма
Режиссер: Тони Скотт
Актеры: Дензел Вашингтон, Дакота Фаннинг, Рада Митчелл, Кристофер Уокен, Марк Энтони, Джанкарло Джаннини, Микки Рурк, Рэйчел Тикотин, Густаво Санчес Парра, Хесус Очоа
Описание фильма: Состоятельные жители Мехико в панике: всего за шесть дней в городе пропали 24 человека! Бывшего агента ЦРУ Джона Кризи нанимают телохранителем девятилетней дочери промышленника Сэмюэля Рамоса, Питы Рамос. Поначалу Кризи с трудом терпит соседство не по годам развитой девочки.
Но со временем они становятся друзьями. Кризи вновь почувствовал вкус к жизни, но все рушится, когда Питу похищают. Кризи клянется убить любого, кто втянут в похищение Питы. Теперь его никто не остановит…
Перевод: профессиональный (полное дублирование), профессиональный (многоголосый закадровый), профессиональный (двуголосый закадровый), авторский (одноголосый закадровый)
Вид субтитров: вшитые отключаемые
Язык субтитров: русские (Full, Forsed), английские

Рейтинг MPAA
Дата мировой премьеры: 21 апреля 2004
Дата российской премьеры: 9 сентября 2004, «Гемини Киномир»
Дата выхода DVD релиза: 30 августа 2005, «Гемини-Фильм»
Дата выхода Blu-Ray релиза: 26 марта 2009, «Двадцатый Век Фокс СНГ»
Продолжительность: 02:26:07
Качество: BDRip (720p)
Видео: MPEG-4 AVC/H.264, 1280 x 536 (2,40:1), 7 578 kbps, 23.976 fps, 0.461 b/px
Аудио # 1: DTS, 6 ch, 768 kbps, 48 000 Hz [дублированный]
Аудио # 2: АС3, 2 ch, 192 kbps, 48 000 Hz [многоголосый закадровый (РТР)]
Аудио # 3: DTS, 6 ch, 1509 kbps, 48 000 Hz [двуголосый закадровый (Tycoon)]
Аудио # 4: DTS, 6 ch, 1509 kbps, 48 000 Hz [одноголосый закадровый (А.Гаврилов)]
Аудио # 5: DTS, 6 ch, 1509 kbps, 48 000 Hz [одноголосый закадровый (Ю.Живов)]
Аудио # 6: DTS, 6 ch, 1509 kbps, 48 000 Hz [одноголосый закадровый (Д.Пучков)]
Аудио # 7: DTS, 6 ch, 1509 kbps, 48 000 Hz [оригинальный]

MediaInfo

Общее
Уникальный идентификатор                 : 208733443560933831938136249082067572380 (0x9D089953CC4C13CD812091A87C64569C)
Полное имя                               : D:\[2004] Гнев [BDRip] [720p].mkv
Формат                                   : Matroska
Версия формата                           : Version 4 / Version 2
Размер файла                             : 16,4 Гбайт
Продолжительность                        : 2 ч. 26 м.
Общий поток                              : 16,1 Мбит/сек
Название фильма                          : Гнев / Man on Fire (2004) BDRip [720p]
Дата кодирования                         : UTC 2014-11-11 10:34:46
Программа кодирования                    : mkvmerge v7.2.0 ('On Every Street') 32bit built on Sep 13 2014 15:42:11
Библиотека кодирования                   : libebml v1.3.0 + libmatroska v1.4.1
DURATION                                 : 02:24:19.373000000
NUMBER_OF_FRAMES                         : 1359
NUMBER_OF_BYTES                          : 47396
_STATISTICS_WRITING_APP                  : mkvmerge v7.2.0 ('On Every Street') 32bit built on Sep 13 2014 15:42:11
_STATISTICS_WRITING_DATE_UTC             : 2014-11-11 10:34:46
_STATISTICS_TAGS                         : BPS DURATION NUMBER_OF_FRAMES NUMBER_OF_BYTES
Видео
Идентификатор                            : 1
Формат                                   : AVC
Формат/Информация                        : Advanced Video Codec
Профиль формата                          : [url=mailto:High@L4.1]High@L4.1[/url]
Параметр CABAC формата                   : Да
Параметр ReFrames формата                : 8 кадров
Идентификатор кодека                     : V_MPEG4/ISO/AVC
Продолжительность                        : 2 ч. 26 м.
Битрейт                                  : 7578 Кбит/сек
Ширина                                   : 1280 пикселей
Высота                                   : 536 пикселей
Соотношение сторон                       : 2,40:1
Режим частоты кадров                     : Постоянный
Частота кадров                           : 23,976 кадра/сек
Цветовое пространство                    : YUV
Субдискретизация насыщенности            : 4:2:0
Битовая глубина                          : 8 бит
Тип развёртки                            : Прогрессивная
Бит/(Пиксели*Кадры)                      : 0.461
Размер потока                            : 7,41 Гбайт (45%)
Заголовок                                : [2004] Гнев / Man on Fire [BDRip] [720p]
Библиотека кодирования                   : x264 core 100 r1659 57b2e56
Настройки программы                      : cabac=1 / ref=8 / deblock=1:-3:-3 / analyse=0x3:0x113 / me=tesa / subme=10 / psy=1 / psy_rd=1.00:0.00 / mixed_ref=1 / me_range=64 / chroma_me=1 / trellis=2 / 8x8dct=1 / cqm=0 / deadzone=21,11 / fast_pskip=0 / chroma_qp_offset=-2 / threads=12 / sliced_threads=0 / nr=0 / decimate=1 / interlaced=0 / constrained_intra=0 / bframes=6 / b_pyramid=2 / b_adapt=2 / b_bias=0 / direct=3 / weightb=1 / open_gop=0 / weightp=2 / keyint=250 / keyint_min=25 / scenecut=40 / intra_refresh=0 / rc_lookahead=80 / rc=2pass / mbtree=1 / bitrate=7578 / ratetol=1.0 / qcomp=0.60 / qpmin=10 / qpmax=51 / qpstep=4 / cplxblur=20.0 / qblur=0.5 / ip_ratio=1.40 / aq=1:0.80
Язык                                     : English
Default                                  : Да
Forced                                   : Нет
DURATION                                 : 02:26:07.794000000
NUMBER_OF_FRAMES                         : 210217
NUMBER_OF_BYTES                          : 8305219084
_STATISTICS_WRITING_APP                  : mkvmerge v7.2.0 ('On Every Street') 32bit built on Sep 13 2014 15:42:11
_STATISTICS_WRITING_DATE_UTC             : 2014-11-11 10:34:46
_STATISTICS_TAGS                         : BPS DURATION NUMBER_OF_FRAMES NUMBER_OF_BYTES
Аудио #1
Идентификатор                            : 2
Формат                                   : DTS
Формат/Информация                        : Digital Theater Systems
Режим                                    : 16
Параметр Endianness формата              : Big
Идентификатор кодека                     : A_DTS
Продолжительность                        : 2 ч. 26 м.
Вид битрейта                             : Постоянный
Битрейт                                  : 768 Кбит/сек
Каналы                                   : 6 каналов
Расположение каналов                     : Front: L C R, Side: L R, LFE
Частота                                  : 48,0 КГц
Битовая глубина                          : 24 бит
Метод сжатия                             : С потерями
Размер потока                            : 803 Мбайт (5%)
Заголовок                                : Дублированный
Язык                                     : Russian
Default                                  : Да
Forced                                   : Нет
Аудио #2
Идентификатор                            : 3
Формат                                   : AC-3
Формат/Информация                        : Audio Coding 3
Расширение режима                        : CM (complete main)
Параметр Endianness формата              : Big
Идентификатор кодека                     : A_AC3
Продолжительность                        : 2 ч. 26 м.
Вид битрейта                             : Постоянный
Битрейт                                  : 192 Кбит/сек
Каналы                                   : 2 канала
Расположение каналов                     : Front: L R
Частота                                  : 48,0 КГц
Битовая глубина                          : 16 бит
Метод сжатия                             : С потерями
Размер потока                            : 201 Мбайт (1%)
Заголовок                                : Многоголосый закадровый (РТР)
Язык                                     : Russian
Default                                  : Нет
Forced                                   : Нет
Аудио #3
Идентификатор                            : 4
Формат                                   : DTS
Формат/Информация                        : Digital Theater Systems
Режим                                    : 16
Параметр Endianness формата              : Big
Идентификатор кодека                     : A_DTS
Продолжительность                        : 2 ч. 26 м.
Вид битрейта                             : Постоянный
Битрейт                                  : 1509 Кбит/сек
Каналы                                   : 6 каналов
Расположение каналов                     : Front: L C R, Side: L R, LFE
Частота                                  : 48,0 КГц
Битовая глубина                          : 24 бит
Метод сжатия                             : С потерями
Размер потока                            : 1,54 Гбайт (9%)
Заголовок                                : Двуголосый закадровый (Tycoon)
Язык                                     : Russian
Default                                  : Нет
Forced                                   : Нет
Аудио #4
Идентификатор                            : 5
Формат                                   : DTS
Формат/Информация                        : Digital Theater Systems
Режим                                    : 16
Параметр Endianness формата              : Big
Идентификатор кодека                     : A_DTS
Продолжительность                        : 2 ч. 26 м.
Вид битрейта                             : Постоянный
Битрейт                                  : 1509 Кбит/сек
Каналы                                   : 6 каналов
Расположение каналов                     : Front: L C R, Side: L R, LFE
Частота                                  : 48,0 КГц
Битовая глубина                          : 24 бит
Метод сжатия                             : С потерями
Размер потока                            : 1,54 Гбайт (9%)
Заголовок                                : Одноголосый закадровый (А.Гаврилов)
Язык                                     : Russian
Default                                  : Нет
Forced                                   : Нет
Аудио #5
Идентификатор                            : 6
Формат                                   : DTS
Формат/Информация                        : Digital Theater Systems
Режим                                    : 16
Параметр Endianness формата              : Big
Идентификатор кодека                     : A_DTS
Продолжительность                        : 2 ч. 26 м.
Вид битрейта                             : Постоянный
Битрейт                                  : 1509 Кбит/сек
Каналы                                   : 6 каналов
Расположение каналов                     : Front: L C R, Side: L R, LFE
Частота                                  : 48,0 КГц
Битовая глубина                          : 24 бит
Метод сжатия                             : С потерями
Размер потока                            : 1,54 Гбайт (9%)
Заголовок                                : Одноголосый закадровый (Ю.Живов)
Язык                                     : Russian
Default                                  : Нет
Forced                                   : Нет
Аудио #6
Идентификатор                            : 7
Формат                                   : DTS
Формат/Информация                        : Digital Theater Systems
Режим                                    : 16
Параметр Endianness формата              : Big
Идентификатор кодека                     : A_DTS
Продолжительность                        : 2 ч. 26 м.
Вид битрейта                             : Постоянный
Битрейт                                  : 1509 Кбит/сек
Каналы                                   : 6 каналов
Расположение каналов                     : Front: L C R, Side: L R, LFE
Частота                                  : 48,0 КГц
Битовая глубина                          : 24 бит
Метод сжатия                             : С потерями
Размер потока                            : 1,54 Гбайт (9%)
Заголовок                                : Одноголосый закадровый (Д.Пучков)
Язык                                     : Russian
Default                                  : Нет
Forced                                   : Нет
Аудио #7
Идентификатор                            : 8
Формат                                   : DTS
Формат/Информация                        : Digital Theater Systems
Режим                                    : 16
Параметр Endianness формата              : Big
Идентификатор кодека                     : A_DTS
Продолжительность                        : 2 ч. 26 м.
Вид битрейта                             : Постоянный
Битрейт                                  : 1509 Кбит/сек
Каналы                                   : 6 каналов
Расположение каналов                     : Front: L C R, Side: L R, LFE
Частота                                  : 48,0 КГц
Битовая глубина                          : 24 бит
Метод сжатия                             : С потерями
Размер потока                            : 1,54 Гбайт (9%)
Заголовок                                : Оригинальный
Язык                                     : English
Default                                  : Нет
Forced                                   : Нет
Текст #1
Идентификатор                            : 9
Формат                                   : UTF-8
Идентификатор кодека                     : S_TEXT/UTF8
Идентификатор кодека/Информация          : UTF-8 Plain Text
Заголовок                                : Русские (Full)
Язык                                     : Russian
Default                                  : Нет
Forced                                   : Нет
Текст #2
Идентификатор                            : 10
Формат                                   : UTF-8
Идентификатор кодека                     : S_TEXT/UTF8
Идентификатор кодека/Информация          : UTF-8 Plain Text
Заголовок                                : Русские (Forced)
Язык                                     : Russian
Default                                  : Да
Forced                                   : Нет
Текст #3
Идентификатор                            : 11
Формат                                   : UTF-8
Идентификатор кодека                     : S_TEXT/UTF8
Идентификатор кодека/Информация          : UTF-8 Plain Text
Заголовок                                : English
Язык                                     : English
Default                                  : Нет
Forced                                   : Нет
Меню
00:00:00.000                             : en:00:00:00.000
00:05:00.000                             : en:00:05:00.000
00:10:00.000                             : en:00:10:00.000
00:15:00.000                             : en:00:15:00.000
00:20:00.000                             : en:00:20:00.000
00:25:00.000                             : en:00:25:00.000
00:30:00.000                             : en:00:30:00.000
00:35:00.000                             : en:00:35:00.000
00:40:00.000                             : en:00:40:00.000
00:45:00.000                             : en:00:45:00.000
00:50:00.000                             : en:00:50:00.000
00:55:00.000                             : en:00:55:00.000
01:00:00.000                             : en:01:00:00.000
01:05:00.000                             : en:01:05:00.000
01:10:00.000                             : en:01:10:00.000
01:15:00.000                             : en:01:15:00.000
01:20:00.000                             : en:01:20:00.000
01:25:00.000                             : en:01:25:00.000
01:30:00.000                             : en:01:30:00.000
01:35:00.000                             : en:01:35:00.000
01:40:00.000                             : en:01:40:00.000
01:45:00.000                             : en:01:45:00.000
01:50:00.000                             : en:01:50:00.000
01:55:00.000                             : en:01:55:00.000
02:00:00.000                             : en:02:00:00.000
02:05:00.000                             : en:02:05:00.000
02:10:00.000                             : en:02:10:00.000
02:15:00.000                             : en:02:15:00.000
02:20:00.000                             : en:02:20:00.000
02:25:00.000                             : en:02:25:00.000

Интересные факты о фильме

*** Фильм снят по мотивам романа А. Дж. Квиннелла «До белого каления» (Man on Fire, 1981).
*** Часы Кризи — «Casio Pathfinder 227».
*** Из фильма были вырезаны две эротические сцены: первая — между Кризи и Лизой, вторая — между Лизой и её мужем.
*** Тони Скотт вполне мог возглавить оригинальный проект «Гнев» в середине 80-х, однако студия решила отказаться от его услуг, так как на тот момент в послужном списке режиссера не было ни одного громкого хита, и они попросту испугались, что он не сможет довести дело до конца.
*** Кандидатуры Майкла Бэя и Антуана Фукуа рассматривались на должности режиссеров проекта.
*** В роли Кризи могли отметиться Роберт Де Ниро, Уилл Смит и Брюс Уиллис.
*** Дензел Вашингтон попал в фильм совершенно случайно. Как-то он собрался сходить к врачу, и к своему удивлению, в той же больнице повстречал Тони Скотта. Мужчины засели в комнату ожидания, мило побеседовали и пришли к выводу, что им неплохо будет поработать вместе.
*** Высказывание Кризи о том, что неплохо было столкнуть лицом к лицу киднепперов (людей, занимающихся похищением детей, и требующих за освобождение выкуп) и Бога. Практически такое же выражение слетело с уст генерала Норманна Шварцкопфа, правда, в нем речь шла о террористах.
*** Перед тем, как Кризи попадает в ночной клуб, внимательные зрители могут заметить, что музыка ненадолго прерывается и звучит довольно знакомая фраза: «We got a winner!». Она принадлежит никому иному как Кристоферу МакДональду, сыгравшему в фильме «Реквием по мечте» (2000) телеведущего Табби Тиббонса.
*** В романе А. Дж. Квиннелла героиню Дакоты Фаннинг звали Пинта. В ранних версиях сценария её звали Пута. Но после того, как Тони Скотт узнал, что по-испански «Puta» означает шлюха, он изменил имя на Пита. Полное имя девочки - Лупита или Лупе.
*** Идея необычных субтитров, время от времени появляющихся в фильме, была позаимствована из старых фильмов о кунг-фу.
*** В рамках подготовки к своей роли Дакота Фаннинг брала уроки игры на пианино, плавания и испанского языка.
*** В первый съемочный день Дакоты Фаннинг снимали сцену, в которой Кризи отвозит Питу в школу.
*** Специально для фильма было закуплено несколько мерседесов S-класса, которые были разбиты во время съёмок.
*** Сцена на кухне, в которой Пита расспрашивает Кризи о его женщинах, практически полностью является импровизацией двух актеров.
*** Актер, сыгравший Аурелио (Джеро Камило), не говорит по-английски.
*** Сценарист фильма, Брайан Хелгеленд, впервые увидел оригинальный «Гнев» (1986) в конце 1980-х. Он взял кассету с фильмом в видеопрокате, в котором в то время работал Квентин Тарантино. Брайан никак не мог выбрать фильм, и спросил Квентина: «Что у Вас есть интересного посмотреть?». Тарантино порекомендовал «Гнев» (1987).
*** Изначально предполагалось, что Кристофер Уокен сыграет адвоката Самуэля Рамоса, Джордана Кауфуса (данная роль впоследствии досталось Микки Рурку), но Уокен не хотел в очередной раз играть плохого парня. Он согласился сниматься в фильме, но только если у него будет положительный персонаж, поэтому Уокен сыграл Рэйберна.
*** В фильме главный герой произносит: «Можно ли простить врага? Бог простит! Моя задача организовать их встречу…». Эта фраза принадлежит Аль Капоне.
Скриншоты: -Время раздачи: 24/7 до 5-ти скачавших, затем по мере возможности
[Профиль] [ЛС]
Показать сообщения:    

Текущее время: Сегодня 17:42

Часовой пояс: GMT



Вы не можете начинать темы
Вы не можете отвечать на сообщения
Вы не можете редактировать свои сообщения
Вы не можете удалять свои сообщения
Вы не можете голосовать в опросах
Вы не можете прикреплять файлы к сообщениям
Вы не можете скачивать файлы