Глюкоза - Зачем (2014) HDTV [1080p]

 
Автор Сообщение

sergej644 ®

Пол:

Стаж: 4 года 11 месяцев

Сообщений: 6045

Откуда: Soviet Union



Награды: Нет

Торрент-статистика

Создавать темы 02-Авг-2014 20:29

[Цитировать]

-Глюкоза - Зачем (2014) HDTV [1080p]- Исполнитель: Глюкоза - Зачем
Год выпуска: 2014
Жанр: Pop
Продолжительность: 00:04:09
Описание: Российская певица Глюкоза (Наталья Чистякова-Ионова) выпустила новый клип на песню «Зачем». Видео рассказывает о времени, которое героиня провела вместе с любимым на берегу моря.
Качество видео: HDTV [1080p]
Видеокодек: MPEG-4 AVC/H.264
Битрейт видео: ~8019 Кбит/с
Размер кадра: 1920x1080 (16:9), 25,000 кадров/с
Аудиокодек: AAC, 2 ch, stereo
Битрейт аудио: 317 Кбит/с

MediaInfo:

Общее
Полное имя : Глюкоза - Зачем.mp4
Формат : MPEG-4
Профиль формата : Base Media / Version 2
Идентификатор кодека : mp42
Размер файла : 248 Мбайт
Продолжительность : 4 м. 9 с.
Режим общего битрейта : Переменный
Общий поток : 8344 Кбит/сек
Дата кодирования : UTC 2014-07-31 09:51:48
Дата пометки : UTC 2014-07-31 09:51:51
©TIM : 00:00:00:05
©TSC : 25
©TSZ : 1
Видео
Идентификатор : 1
Формат : AVC
Формат/Информация : Advanced Video Codec
Профиль формата : [url=mailto:Main@L4.2]Main@L4.2[/url]
Параметр CABAC формата : Да
Параметр ReFrames формата : 3 кадра
Идентификатор кодека : avc1
Идентификатор кодека/Информация : Advanced Video Coding
Продолжительность : 4 м. 9 с.
Вид битрейта : Переменный
Битрейт : 8019 Кбит/сек
Максимальный битрейт : 12,0 Мбит/сек
Ширина : 1920 пикселей
Высота : 1080 пикселей
Соотношение сторон : 16:9
Режим частоты кадров : Постоянный
Частота кадров : 25,000 кадров/сек
Стандарт вещания : PAL
Цветовое пространство : YUV
Субдискретизация насыщенности : 4:2:0
Битовая глубина : 8 бит
Тип развёртки : Прогрессивная
Бит/(Пиксели*Кадры) : 0.155
Размер потока : 239 Мбайт (96%)
Язык : English
Дата кодирования : UTC 2014-07-31 09:51:48
Дата пометки : UTC 2014-07-31 09:51:48
Аудио
Идентификатор : 2
Формат : AAC
Формат/Информация : Advanced Audio Codec
Профиль формата : LC
Идентификатор кодека : 40
Продолжительность : 4 м. 9 с.
Продолжительность оригинала : 4 м. 9 с.
Вид битрейта : Переменный
Битрейт : 317 Кбит/сек
Максимальный битрейт : 440 Кбит/сек
Каналы : 2 канала
Расположение каналов : Front: L R
Частота : 48,0 КГц
Метод сжатия : С потерями
Размер потока : 9,45 Мбайт (4%)
Размер потока оригинала : 9,45 Мбайт (4%)
Язык : English
Дата кодирования : UTC 2014-07-31 09:51:48
Дата пометки : UTC 2014-07-31 09:51:48
Скриншоты:
[Профиль] [ЛС]

Создавать темы 13-Авг-2015 12:07 (спустя 1 год)

Топик был перенесен из форума Видеоклипы в форум Наши клипы
sergej644
 
Показать сообщения:    

Текущее время: Сегодня 00:18

Часовой пояс: GMT



Вы не можете начинать темы
Вы не можете отвечать на сообщения
Вы не можете редактировать свои сообщения
Вы не можете удалять свои сообщения
Вы не можете голосовать в опросах
Вы не можете прикреплять файлы к сообщениям
Вы не можете скачивать файлы