Глубоководный горизонт / Deepwater Horizon (2016) CAMRip | D

 
Автор Сообщение

Russian Mafia ®

Пол:

Стаж: 1 год 8 месяцев

Сообщений: 4257



Награды: 10 (Подробнее)

Mega Seeder 5 (Количество: 1) Mega Seeder 3 (Количество: 1) Top Releaser 4 (Количество: 1)
Торрент-статистика

Создавать темы 04-Окт-2016 13:35

[Цитировать]

Глубоководный горизонт / Deepwater Horizon
Страна: США
Производство: Di Bonaventura Pictures, Leverage Entertainment, Lionsgate, Summit Entertainment
Год выпуска: 2016
Жанр: боевик, триллер, драма
Продолжительность: 01:38:25
Режиссер: Питер Берг
Авторы сценария: Мэттью Сэнд, Мэттью Майкл Карнахан
В ролях: Дилан О’Брайен, Марк Уолберг, Кейт Хадсон, Курт Рассел, Джина Родригез, Итан Сапли, Джон Малкович, Сью-Линн Ансари, Джо Крест
Описание: Отправляясь на очередную вахту и прощаясь с семьями, они не подозревали, что могут не вернуться… Это основанная на реальных событиях история о страшной аварии на нефтяной платформе «Глубоководный горизонт», которая произошла в 2010 году в Мексиканском заливе. Хроника беспримерного мужества и отваги перед лицом одной из самых страшных техногенных катастроф в мировой истории...

Перевод: Профессиональный (полное дублирование)
Субтитры: нет-Качество: CAMRip
Формат: АVI
Видео кодек: XviD
Аудио кодек: АС3
Видео: 720x336 (2.143), 29.970 fps, XviD ~1 709 kbps avg
Аудио: 48 kHz, AC3 Dolby Digital, 2/0 (L,R) ch, ~192 kbps
Дата премьеры (мир): 13 сентября 2016
Дата премьеры (РФ): 29 сентября 2016, «Централ Партнершип»

Дополнительная информация: полный фильм!

Media Info

General
Complete name : Gorizont.Glubokovodniy.2O16.D.CAMRip.PROPER.14OOMB.avi
Format : AVI
Format/Info : Audio Video Interleave
File size : 1.37 GiB
Duration : 1h 38mn
Overall bit rate : 1 988 Kbps
Writing application : VirtualDubMod 1.5.10.2 (build 2540/release)
Writing library : VirtualDubMod build 2540/release
Video #0
ID : 0
Format : MPEG-4 Visual
Format profile : Advanced Simple@L5
Format settings, BVOP : 2
Format settings, QPel : No
Format settings, GMC : No warppoints
Format settings, Matrix : Custom
Codec ID : XVID
Codec ID/Hint : XviD
Duration : 1h 38mn
Bit rate : 1 709 Kbps
Width : 720 pixels
Height : 336 pixels
Display aspect ratio : 2.143
Frame rate : 29.970 fps
Color space : YUV
Chroma subsampling : 4:2:0
Bit depth : 8 bits
Scan type : Progressive
Compression mode : Lossy
Bits/(Pixel*Frame) : 0.236
Stream size : 1.17 GiB (86%)
Writing library : XviD 1.2.1 (UTC 2008-12-04)
Audio #1
ID : 1
Format : AC-3
Format/Info : Audio Coding 3
Mode extension : CM (complete main)
Format settings, Endianness : Big
Codec ID : 2000
Duration : 1h 38mn
Bit rate mode : Constant
Bit rate : 192 Kbps
Channel(s) : 2 channels
Channel positions : Front: L R
Sampling rate : 48.0 KHz
Bit depth : 16 bits
Compression mode : Lossy
Stream size : 135 MiB (10%)
Alignment : Split accross interleaves

Скриншоты

[Профиль] [ЛС]
Показать сообщения:    

Текущее время: Сегодня 16:24

Часовой пояс: GMT



Вы не можете начинать темы
Вы не можете отвечать на сообщения
Вы не можете редактировать свои сообщения
Вы не можете удалять свои сообщения
Вы не можете голосовать в опросах
Вы не можете прикреплять файлы к сообщениям
Вы не можете скачивать файлы