Глубинная бомба / Depth Charge (Терренс О`Хара / Terrence O\'Hara) [2008, США, боевик, триллер, HDRip] MVO

 
Автор Сообщение

painkiller ®

Стаж: 2 года 3 месяца

Сообщений: 582



Награды: Нет

Торрент-статистика

Создавать темы 15-Авг-2014 10:16

[Цитировать]

Глубинная бомба / Depth Charge
Страна: США
Жанр: боевик, триллер
Год выпуска: 2008
Продолжительность: 01:20:43
Перевод: Профессиональный (многоголосый закадровый)
Cубтитры: нет
Режиссер: Терренс О`Хара / Terrence O'Hara
В ролях: Эрик Робертс, Джейсон Гедрик, Мори Стерлинг, Йорго Константин, Дэвид Дайан Фишер, Доби Опарей, Марк Кубр, Мишель Ли, Джеф Мид
Описание: Подводная лодка «Монтана», несущая на борту двадцать четыре баллистические ракеты с ядерным зарядом и оснащённая суперсовременной системой «Стелс», захвачена террористами. Первая цель террористов — Вашингтон и получение выкупа в один миллиард долларов. Далее — Лондон, Рим, Париж. Для подтверждения серьёзности своих намерений террористы готовы уничтожить любую цель. И первые жертвы уже есть — это команда подводной лодки и военный корабль НАТО. На поединок с «Монтаной» выходит другая подводная лодка, «Флорида», но шансы на победу у неё невелики, ведь благодаря системе «Стелс» «Монтана» невидима для сонаров и практически неуязвима. Вот только вопреки уверенности террористов, кое-кто из команды подлодки остался жив и готов преподнести им неприятный сюрприз…
Сэмпл: http://multi-up.com/975947
Качество видео: HDRip
Формат видео: AVI
Видео: XviD, 720 x 400, ~1966 kbps, 25,000 кадров/сек
Аудио: AC-3, 6 ch, 448 kbps, 48,0 КГц

MediaInfo

I:\Глубинная бомба\Glubinnaya_bomba_2008_HDRip.avi
General
Complete name : I:\Глубинная бомба\Glubinnaya_bomba_2008_HDRip.avi
Format : AVI
Format/Info : Audio Video Interleave
Format profile : OpenDML
File size : 1.37 GiB
Duration : 1h 20mn
Overall bit rate : 2 427 Kbps
Writing application : Lavf51.12.1
Video #0
ID : 0
Format : MPEG-4 Visual
Format profile : Simple@L1
Format settings, BVOP : No
Format settings, QPel : No
Format settings, GMC : No warppoints
Format settings, Matrix : Default (H.263)
Codec ID : FMP4
Duration : 1h 20mn
Bit rate : 1 966 Kbps
Width : 720 pixels
Height : 400 pixels
Display aspect ratio : 16:9
Frame rate : 25.000 fps
Color space : YUV
Chroma subsampling : 4:2:0
Bit depth : 8 bits
Scan type : Progressive
Compression mode : Lossy
Bits/(Pixel*Frame) : 0.273
Stream size : 1.11 GiB (81%)
Writing library : Lavc51.40.4
Audio #1
ID : 1
Format : AC-3
Format/Info : Audio Coding 3
Mode extension : CM (complete main)
Format settings, Endianness : Big
Codec ID : 2000
Duration : 1h 20mn
Bit rate mode : Constant
Bit rate : 448 Kbps
Channel count : 6 channels
Channel positions : Front: L C R, Side: L R, LFE
Sampling rate : 48.0 KHz
Bit depth : 16 bits
Compression mode : Lossy
Stream size : 259 MiB (18%)
Alignment : Aligned on interleaves
Interleave, duration : 32 ms (0.80 video frame)
Interleave, preload duration : 32 ms

Скриншот c названием фильма

Скриншоты

[Профиль] [ЛС]

Создавать темы 06-Авг-2015 23:11 (спустя 11 месяцев 22 дня)

Топик был перенесен из форума Фильмы до 2014 года в форум Фильмы до 2012 года
sergej644
 

Создавать темы 12-Июн-2016 08:51 (спустя 1 год 9 месяцев)

Топик был перенесен из форума Фильмы 2011 года в форум Фильмы 2006-2008 года
Russian Mafia
 
Кто просматривает тему:

Форум Тема Автор Размер
Сhanson (Шансон) Сергей Елабуга - Из глубин души - 2010, MP3, 128 kbps Magnat 50 MB
BBC BBC. Глубина / Deep Blue (2003) BDRip [H.264/1080p] KottoSoft 7.82 GB
Документальные HD IMAX. На глубине (Жизнь глубин) / IMAX. Into the Deep (Ховард Холл / Howard Hall) [1994, США, Канада, Франция, Япония, IMAX Corporation, Документальный, BDRip 720p] VO + Original Eng + Sub (Rus, Eng) TorrentFilm 2.39 GB
Фильмы 2015 года В глубине леса / In fondo al bosco (2015) HDTVRip-AVC | L1 достали все 1.79 GB
R.G.TorrentFilm Video В глубине леса / In fondo al bosco (Стефано Лодовичи) [2015 г., триллер, HDTVRip] [VO (datynet)] Bathory 1.36 GB
Ужасы и мистика Глубина (Маккаммон Роберт) [2014, Ужасы, аудиокнига, MP3, 128kbps, Николай Кобзев] Magnat 43 MB
Фильмы (HD Rips | 720p, 1080p) Глубокие воды / Во глубине вод / Eaux profondes (Мишель Девиль / Michel Deville) [1981, Франция, драма, криминал, BDRip 720p] DVO + Sub Eng, Fre + Original Fre reversefile 6.97 GB
Документальные HD Дикие Гавайи. Тайны морских глубин / Wild Hawaii. Secrets of the Deep (Карен Гринфилд) [2013, Документальный, BDRip 720p] TorrentFilm 1.91 GB
Показать сообщения:    

Текущее время: Сегодня 18:38

Часовой пояс: GMT



Вы не можете начинать темы
Вы не можете отвечать на сообщения
Вы не можете редактировать свои сообщения
Вы не можете удалять свои сообщения
Вы не можете голосовать в опросах
Вы не можете прикреплять файлы к сообщениям
Вы не можете скачивать файлы