Гленн 3948 / Glenn, the Flying Robot (Марк Голдштейн / Marc Goldstein) [2010, Бельгия, фантастика, BDRip] MVO (СТС) + Original + sub

 
Автор Сообщение

painkiller ®

Стаж: 2 года 3 месяца

Сообщений: 582



Награды: Нет

Торрент-статистика

Создавать темы 14-Авг-2014 09:15

[Цитировать]

Гленн 3948 / Glenn, the Flying Robot- Год выпуска: 2010
Выпущено: Бельгия
Жанр: фантастика
Продолжительность: 01:23:30
Перевод: Профессиональный (многоголосый, закадровый) СТС
+ Оригинальная звуковая дорожка
Субтитры: Русские (внешние srt*)-Режиссер: Марк Голдштейн / Marc Goldstein
В ролях: Билли Бойд, Доминик Гулд, Патрик Бошо, Жерар Депардье, Смади Вольфман, Джефри Кэри, Винсент Итон, Мелинда Коулмэн, Нэйтан Кемп, Дэвид Лопес
О фильме: Музыканту Джеку не очень везет в жизни. Удачливый соперник превзошел его и в работе, и в любви. Когда в драке с Генри Джек ломает руку, ему кажется, что жизнь закончена. Но у него появляется домашний робот для помощи по хозяйству. И когда выясняется, что робота можно научить играть, перед Джеком открываются головокружительные перспективы. Он мечтал одержать верх над Генри и получить свое, но у робота свое видение ситуации и свои счеты — теперь уже с их общим соперником.-Релиз:
Автор: sociolog_melvas
Качество: BDRip (источник: arxivariys / BDRemux / 1080р)
Формат: AVI
Видео: 720x320 (2.25:1), 23,976 fps, XviD build 65 ~1898 kbps avg, 0.34 bit/pixel
Аудио #1: 48 kHz, AC3 Dolby Digital, 2/0 (L,R), ~192.00 kbps avg rus
Аудио #2: 48 kHz, AC3 Dolby Digital, 3/2 (L,C,R,l,r) + LFE ch, ~384.00 kbps avg eng
Размер: 1486.59 Mb (1/3 DVD-R)
Скачать: Семпл-

Кадры из фильма


-

Mi

Формат : AVI
Формат/Информация : Audio Video Interleave
Размер файла : 1,45 Гбайт
Продолжительность : 1 ч. 23 м.
Общий поток : 2489 Кбит/сек
Название фильма : Гленн 3948 / Glenn, the Flying Robot (2010) BDRip
Режиссёр : sociolog_melvas
Жанр : фантастика
Программа кодирования : VirtualDubMod 1.5.10.2 (build 2540/release)
Примечание : 02.03.2014
Видео
Идентификатор : 0
Формат : MPEG-4 Visual
Профиль формата : Advanced Simple@L5
Параметр BVOP формата : 1
Параметр QPel формата : Нет
Параметр GMC формата : Без точки перехода
Параметр матрицы формата : Выборочная
Идентификатор кодека : XVID
Идентификатор кодека/Подсказка : XviD
Продолжительность : 1 ч. 23 м.
Битрейт : 1899 Кбит/сек
Ширина : 720 пикселей
Высота : 320 пикселей
Соотношение сторон : 2,25:1
Частота кадров : 23,976 кадра/сек
Цветовое пространство : YUV
Субдискретизация насыщенности : 4:2:0
Битовая глубина : 8 бит
Тип развёртки : Прогрессивная
Метод сжатия : С потерями
Бит/(Пиксели*Кадры) : 0.344
Размер потока : 1,11 Гбайт (76%)
Библиотека кодирования : XviD 65
Аудио #1
Идентификатор : 1
Формат : AC-3
Формат/Информация : Audio Coding 3
Расширение режима : CM (complete main)
Параметр Endianness формата : Big
Идентификатор кодека : 2000
Продолжительность : 1 ч. 23 м.
Вид битрейта : Постоянный
Битрейт : 192 Кбит/сек
Каналы : 2 канала
Расположение каналов : Front: L R
Частота : 48,0 КГц
Битовая глубина : 16 бит
Метод сжатия : С потерями
Размер потока : 115 Мбайт (8%)
Выравнивание : Разделение по промежуткам
Продолжительность промежутка : 42 мс. (1,00 видеокадр)
Время предзагрузки промежутка : 500 мс.
Аудио #2
Идентификатор : 2
Формат : AC-3
Формат/Информация : Audio Coding 3
Расширение режима : CM (complete main)
Параметр Endianness формата : Big
Идентификатор кодека : 2000
Продолжительность : 1 ч. 23 м.
Вид битрейта : Постоянный
Битрейт : 384 Кбит/сек
Каналы : 6 каналов
Расположение каналов : Front: L C R, Side: L R, LFE
Частота : 48,0 КГц
Битовая глубина : 16 бит
Метод сжатия : С потерями
Размер потока : 229 Мбайт (15%)
Выравнивание : Разделение по промежуткам
Продолжительность промежутка : 42 мс. (1,00 видеокадр)
Время предзагрузки промежутка : 500 мс.
-
[Профиль] [ЛС]

Создавать темы 06-Авг-2015 23:15 (спустя 11 месяцев 23 дня)

Топик был перенесен из форума Фильмы до 2014 года в форум Фильмы до 2012 года
sergej644
 

Создавать темы 12-Июн-2016 07:54 (спустя 1 год 9 месяцев)

Топик был перенесен из форума Фильмы 2011 года в форум Фильмы 2010 года
Russian Mafia
 
Кто просматривает тему:

Форум Тема Автор Размер
R.G.TorrentFilm Video Репортерша / Whiskey Tango Foxtrot (Гленн Фикарра, Джон Рекуа) [2016 г., драма, комедия, военный, биография, BDRip 720p] DUB (iTunes) AleksSin 4.33 GB
Фильмы 2014 года Санта Мяус / Santa Claws (Гленн Р. Миллер / Glenn R. Miller) [2014, США, комедия, семейный, HDRip] AVO (Zamez) TorrentFilm 743 MB
Фильмы 2009 года Угрызения 3: Всё, что вы можете съесть / Eating Out: All You Can Eat (Гленн Гэйлорд) [2009, США, драма, мелодрама, комедия, DVDRip] DVO + Sub Rus TorrentFilm 698 MB
Фильмы 2015 года Фокус / Focus (Гленн Фикарра / Glenn Ficarra, Джон Рекуа / John Requa) [2015 г., США, Аргентина, драма, мелодрама, комедия, криминал, BDRip-AVC] Dub + Ukr + Original Eng + Sub (Rus, Ukr, Eng) TorrentFilm 3.53 GB
Фильмы 2015 года Фокус / Focus (Гленн Фикарра / Glenn Ficarra, Джон Рекуа / John Requa) [2015 г., США, Аргентина, драма, мелодрама, комедия, криминал, BDRip] Dub + Original Eng + Sub (Rus, Ukr, Eng) TorrentFilm 2.18 GB
Фильмы 2015 года Фокус / Focus (Гленн Фикарра / Glenn Ficarra, Джон Рекуа / John Requa) [2015, Драма, мелодрама, комедия, криминал, BDRip-AVC] Dub + Original (Eng) + Subs (Rus., Ukr., Eng.) TorrentFilm 2.18 GB
Фильмы 2015 года Фокус / Focus (Гленн Фикарра / Glenn Ficarra, Джон Рекуа / John Requa) [2015, США, Аргентина, драма, мелодрама, комедия, криминал, BDRip-AVC] Dub CEE + Sub Rus TorrentFilm 1.46 GB
Фильмы 2015 года Фокус / Focus (Гленн Фикарра / Glenn Ficarra, Джон Рекуа / John Requa) [2015, США, Драма, мелодрама, комедия, криминал, BDRip] Dub TorrentFilm 1.46 GB
Показать сообщения:    

Текущее время: Сегодня 13:03

Часовой пояс: GMT



Вы не можете начинать темы
Вы не можете отвечать на сообщения
Вы не можете редактировать свои сообщения
Вы не можете удалять свои сообщения
Вы не можете голосовать в опросах
Вы не можете прикреплять файлы к сообщениям
Вы не можете скачивать файлы