Гленгарри Глен Росс (Американцы) / Glengarry Glen Ross (1992) BDRip 720p от NNNB | P, P2, A

 
Автор Сообщение

Russian Mafia ®

Пол:

Стаж: 1 год 8 месяцев

Сообщений: 4257



Награды: 10 (Подробнее)

Top Releaser 2 (Количество: 1) Mega Seeder 1 (Количество: 1) Top Releaser 4 (Количество: 1)
Торрент-статистика

Создавать темы 12-Апр-2016 08:47

[Цитировать]

Гленгарри Глен Росс (Американцы) / Glengarry Glen Ross
«Ложь. Обман. Кража. Все в один день»
Русское название: Гленгарри Глен Росс (Американцы)
Оригинальное название: Glengarry Glen Ross
Год выпуска: 1992
Жанр: драма
Выпущено: США
Режиссер: Джеймс Фоули
В ролях: Аль Пачино , Джек Леммон , Алек Болдуин , Алан Аркин , Эд Харрис , Кевин Спейси , Джонатан Прайс , Брюс Олтмен , Джуд Чикколелла , Пол Батлер , Лори Тан Чинн , Нил Джонс
Перевод: Профессиональный многоголосый, Профессиональный двухголосый, Авторский одноголосый

Сюжет фильма:
В прокуренном офисе опытные дельцы день и ночь ведут борьбу за драгоценных клиентов, желающих купить землю. В фирму поступают все новые и новые предложения, но достанется приз только самым лучшим. Конкуренция обостряется.
Но когда неизвестные преступники проникают в офис и похищают важные документы, ситуация принимает неожиданный оборот. Теперь под подозрением все, ведь у каждого из этих хладнокровных, безжалостных американцев есть повод для воровства...

Качество: BDRip 720p
Формат: AVC (библиотека кодирования x.264)
Контейнер (Расширение): MKV
Видео: 1280x546, 10077 Кбит/сек, 23,976 кадр/сек, 0,601 Бит/[Пиксели*Кадры]
Аудио №1: русский / AC3 / 2.0 / 48 kHz / 448 kbps / 16 bit |Профессиональный двухголосый, Александр Клюквин и Виктор Петров|
Аудио №2: русский / AC3 / 5.1 / 48 kHz / 448 kbps / 16 bit |Авторский одноголосый, Ю.Сербин|
Аудио №3: русский / AC3 / 2.0 / 48 kHz / 192 kbps / 16 bit |Профессиональный многоголосый, Cinema Prestig|
Аудио №4: русский / AC3 / 2.0 / 48 kHz / 192 kbps / 16 bit |Авторский одноголосый, А.Гаврилов|
Аудио №5: русский / AC3 / 2.0 / 48 kHz / 192 kbps / 16 bit |Профессиональный многоголосый, Телеканал "КУЛЬТУРА"|
Аудио №6: английский / AC3 / 5.1 / 48 kHz / 640 kbps / 16 bit
Субтитры: русские, английские
Навигация по главам(Чаптеры): есть
Продолжительность: 01:40:23Автор рипа: Сообщество:

MediaInfo

Format : Matroska
Format version : Version 2
File size : 8.72 GiB
Duration : 1h 40mn
Overall bit rate : 12.4 Mbps
Movie name : Glengarry Glen Ross.(1992).BDRip.720p.[denis100]
Encoded date : UTC 2016-04-12 05:46:37
Writing application : mkvmerge v5.8.0 ('No Sleep / Pillow') built on Sep 2 2012 15:37:04
Writing library : libebml v1.2.3 + libmatroska v1.3.0
Video
ID : 1
Format : AVC
Format/Info : Advanced Video Codec
Format profile : High@L4.1
Format settings, CABAC : Yes
Format settings, ReFrames : 11 frames
Codec ID : V_MPEG4/ISO/AVC
Duration : 1h 40mn
Bit rate : 10.1 Mbps
Width : 1 280 pixels
Height : 546 pixels
Display aspect ratio : 2.35:1
Frame rate : 23.976 fps
Color space : YUV
Chroma subsampling : 4:2:0
Bit depth : 8 bits
Scan type : Progressive
Bits/(Pixel*Frame) : 0.601
Stream size : 7.07 GiB (81%)
Title : Glengarry Glen Ross.(1992).BDRip.720p.[denis100]
Writing library : x264 core 148 r2665 a01e339
Encoding settings : cabac=1 / ref=11 / deblock=1:-3:-3 / analyse=0x3:0x133 / me=umh / subme=11 / psy=1 / psy_rd=1.00:0.15 / mixed_ref=1 / me_range=48 / chroma_me=1 / trellis=2 / 8x8dct=1 / cqm=0 / deadzone=21,11 / fast_pskip=0 / chroma_qp_offset=-3 / threads=6 / lookahead_threads=1 / sliced_threads=0 / nr=0 / decimate=1 / interlaced=0 / bluray_compat=0 / constrained_intra=0 / bframes=16 / b_pyramid=2 / b_adapt=2 / b_bias=0 / direct=3 / weightb=1 / open_gop=0 / weightp=2 / keyint=240 / keyint_min=23 / scenecut=40 / intra_refresh=0 / rc=crf / mbtree=0 / crf=17.5 / qcomp=0.60 / qpmin=0 / qpmax=69 / qpstep=4 / ip_ratio=1.40 / pb_ratio=1.30 / aq=1:0.80
Language : English
Default : Yes
Forced : No
Audio #1
ID : 2
Format : AC-3
Format/Info : Audio Coding 3
Mode extension : CM (complete main)
Codec ID : A_AC3
Duration : 1h 40mn
Bit rate mode : Constant
Bit rate : 448 Kbps
Channel(s) : 2 channels
Channel positions : Front: L R
Sampling rate : 48.0 KHz
Bit depth : 16 bits
Compression mode : Lossy
Stream size : 322 MiB (4%)
Title : DVO, Клюквин и Петров
Language : Russian
Default : Yes
Forced : No
Audio #2
ID : 3
Format : AC-3
Format/Info : Audio Coding 3
Mode extension : CM (complete main)
Codec ID : A_AC3
Duration : 1h 40mn
Bit rate mode : Constant
Bit rate : 448 Kbps
Channel(s) : 6 channels
Channel positions : Front: L C R, Side: L R, LFE
Sampling rate : 48.0 KHz
Bit depth : 16 bits
Compression mode : Lossy
Stream size : 322 MiB (4%)
Title : AVO, Сербин
Language : Russian
Default : No
Forced : No
Audio #3
ID : 4
Format : AC-3
Format/Info : Audio Coding 3
Mode extension : CM (complete main)
Codec ID : A_AC3
Duration : 1h 40mn
Bit rate mode : Constant
Bit rate : 192 Kbps
Channel(s) : 2 channels
Channel positions : Front: L R
Sampling rate : 48.0 KHz
Bit depth : 16 bits
Compression mode : Lossy
Stream size : 138 MiB (2%)
Title : MVO, Cinema Prestige
Language : Russian
Default : No
Forced : No
Audio #4
ID : 5
Format : AC-3
Format/Info : Audio Coding 3
Mode extension : CM (complete main)
Codec ID : A_AC3
Duration : 1h 40mn
Bit rate mode : Constant
Bit rate : 192 Kbps
Channel(s) : 2 channels
Channel positions : Front: L R
Sampling rate : 48.0 KHz
Bit depth : 16 bits
Compression mode : Lossy
Stream size : 138 MiB (2%)
Title : AVO, Гаврилов
Language : Russian
Default : No
Forced : No
Audio #5
ID : 6
Format : AC-3
Format/Info : Audio Coding 3
Mode extension : CM (complete main)
Codec ID : A_AC3
Duration : 1h 40mn
Bit rate mode : Constant
Bit rate : 192 Kbps
Channel(s) : 2 channels
Channel positions : Front: L R
Sampling rate : 48.0 KHz
Bit depth : 16 bits
Compression mode : Lossy
Stream size : 138 MiB (2%)
Title : MVO, Культура
Language : Russian
Default : No
Forced : No
Audio #6
ID : 7
Format : AC-3
Format/Info : Audio Coding 3
Mode extension : CM (complete main)
Codec ID : A_AC3
Duration : 1h 40mn
Bit rate mode : Constant
Bit rate : 640 Kbps
Channel(s) : 6 channels
Channel positions : Front: L C R, Side: L R, LFE
Sampling rate : 48.0 KHz
Bit depth : 16 bits
Compression mode : Lossy
Stream size : 460 MiB (5%)
Language : English
Default : No
Forced : No
Text #1
ID : 8
Format : UTF-8
Codec ID : S_TEXT/UTF8
Codec ID/Info : UTF-8 Plain Text
Language : Russian
Default : No
Forced : No
Text #2
ID : 9
Format : UTF-8
Codec ID : S_TEXT/UTF8
Codec ID/Info : UTF-8 Plain Text
Language : English
Default : No
Forced : No
Menu
00:00:00.000 : en:Glengarry Glen Ross
00:07:37.874 : en:"Coffee's for Closers Only"
00:22:45.030 : en:"What was that Figure?"
00:31:36.019 : en:"You Don't Sell a Guy One Car..."
00:39:31.286 : en:"We're All Queer"
00:58:28.672 : en:"Get the Chalk!"
01:21:25.714 : en:"Where Did you Learn the Trade?"
01:29:40.500 : en:Blue Skies, Smilin' at Me

x264

x264 [info]: frame I:932 Avg QP:17.62 size:120912
x264 [info]: frame P:22613 Avg QP:18.67 size: 81823
x264 [info]: frame B:120864 Avg QP:20.75 size: 48060
x264 [info]: consecutive B-frames: 0.9% 0.3% 1.1% 4.6% 8.4% 50.8% 7.6% 2.2% 8.8% 2.3% 4.7% 3.3% 1.9% 0.7% 1.2% 0.4% 1.0%

Скриншоты

[Профиль] [ЛС]
Кто просматривает тему:

Показать сообщения:    

Текущее время: Сегодня 23:27

Часовой пояс: GMT



Вы не можете начинать темы
Вы не можете отвечать на сообщения
Вы не можете редактировать свои сообщения
Вы не можете удалять свои сообщения
Вы не можете голосовать в опросах
Вы не можете прикреплять файлы к сообщениям
Вы не можете скачивать файлы