Глаза пустыни Атакама / Eyes of the Atacama (Аннетт Шеурих / Annette Scheurich, Klaus Scheurich / Клаус Шеурих) [2013 г., Документальный, научно-познавательный, HDTVRip-AVC 720p]

 
Автор Сообщение

skorpionN ®

Пол:

Стаж: 1 год 8 месяцев

Сообщений: 586



Награды: 4 (Подробнее)

Top Releaser 2 (Количество: 1) Mega Seeder 2 (Количество: 1) Mega Seeder 1 (Количество: 1)
Торрент-статистика

Создавать темы 14-Авг-2016 15:58

[Цитировать]

Глаза пустыни Атакама / Eyes of the Atacama
Год выпуска: 2013
Страна: Австрия, Terra Mater Productions GmbH
Жанр: Документальный, научно-познавательный
Продолжительность: 00:52:02
Перевод: Профессиональный (двухголосый), СВ-Дубль
Режиссер: Аннетт Шеурих / Annette Scheurich, Klaus Scheurich / Клаус Шеурих
Описание: Расположенная на севере Чили пустыня Атакама - далекое, негостеприимное место, напоминающее инопланетный пейзаж из научно-фантастического фильма. Здесь находится самая большая наземная обсерватория. Новейшие телескопы вглядываются в далекие туманности космоса. Они следят за рождением и гибелью звезд и планет.
Доп. информация:
Атакамская Большая Миллиметровая/субмиллиметровая Решетка (сокр.: ALMA. англ.: Atacama Large Millimeter/submillimeter Array) — международный проект, целью которого является постройка крупнейшей астрономической обсерватории в Чили. По завершению проекта комплекс будет состоять как минимум из 66 радиотелескопов 7 и 12 метров в диаметре каждый, объединенных в единый радиоинтерферометр. Телескоп предназначен для изучения процессов, происходивших на протяжении первых сотен миллионов лет после Большого Взрыва, когда формировалось первое поколение звезд. С его помощью планируется получить новые данные, объясняющие механизмы эволюции Вселенной.
Качество: HDTVRip-AVC 720p
Формат: MKV
Видео кодек: H.264
Аудио кодек: AC3
Видео: 1280x720 25.00 fps 4000 kbps
Аудио: AC3, 2ch, 192 kbps, 48 kHz

Скриншоты


MediaInfo:

Format : Matroska
Format version : Version 4 / Version 2
File size : 1.52 GiB
Duration : 52mn 1s
Overall bit rate mode : Variable
Overall bit rate : 4 194 Kbps
Encoded date : UTC 2016-08-14 15:19:03
Writing application : mkvmerge v6.9.1 ('Blue Panther') 64bit built on Apr 18 2014 18:23:38
Writing library : libebml v1.3.0 + libmatroska v1.4.1
Video
ID : 1
Format : AVC
Format/Info : Advanced Video Codec
Format profile : High@L4.1
Format settings, CABAC : Yes
Format settings, ReFrames : 9 frames
Codec ID : V_MPEG4/ISO/AVC
Duration : 52mn 1s
Bit rate mode : Variable
Bit rate : 4 000 Kbps
Maximum bit rate : 18.4 Mbps
Width : 1 280 pixels
Height : 720 pixels
Display aspect ratio : 16:9
Frame rate mode : Constant
Frame rate : 25.000 fps
Standard : Component
Color space : YUV
Chroma subsampling : 4:2:0
Bit depth : 8 bits
Scan type : Progressive
Bits/(Pixel*Frame) : 0.174
Stream size : 1.42 GiB (93%)
Writing library : x264 core 144
Encoding settings : cabac=1 / ref=9 / deblock=1:0:0 / analyse=0x3:0x113 / me=hex / subme=7 / psy=1 / psy_rd=1.00:0.00 / mixed_ref=1 / me_range=16 / chroma_me=1 / trellis=1 / 8x8dct=1 / cqm=1 / deadzone=21,11 / fast_pskip=1 / chroma_qp_offset=-2 / threads=6 / lookahead_threads=1 / sliced_threads=0 / slices=1 / nr=0 / decimate=1 / interlaced=0 / minigop=0 / stitchable=1 / constrained_intra=0 / bframes=3 / b_pyramid=0 / b_adapt=1 / b_bias=0 / direct=1 / weightb=1 / open_gop=1 / weightp=2 / keyint=250 / keyint_min=25 / scenecut=40 / intra_refresh=0 / rc_lookahead=40 / rc=2pass / mbtree=1 / bitrate=4000 / ratetol=1.0 / qcomp=0.60 / qpmin=3 / qpmax=69 / qpstep=4 / cplxblur=20.0 / qblur=0.5 / vbv_maxrate=18400 / vbv_bufsize=18400 / nal_hrd=vbr / filler=0 / ip_ratio=1.40 / aq=1:1.00
Default : Yes
Forced : No
Color range : Limited
Color primaries : BT.709
Transfer characteristics : BT.709
Matrix coefficients : BT.709
Audio
ID : 2
Format : AC-3
Format/Info : Audio Coding 3
Mode extension : CM (complete main)
Format settings, Endianness : Big
Codec ID : A_AC3
Duration : 52mn 1s
Bit rate mode : Constant
Bit rate : 192 Kbps
Channel(s) : 2 channels
Channel positions : Front: L R
Sampling rate : 48.0 KHz
Frame rate : 31.250 fps (1536 spf)
Compression mode : Lossy
Stream size : 71.5 MiB (5%)
Language : Russian
Default : Yes
Forced : No
[Профиль] [ЛС]

KiruhaDelMar

Стаж: 1 год 8 месяцев

Сообщений: 246



Награды: Нет

Торрент-статистика

Создавать темы 14-Авг-2016 17:21 (спустя 1 час 23 минуты)

[Цитировать]

Помнишь как Матроскин Шарика поздравлял , вот это из той серии Поздравляю respect я тебе сто раз говорил, прежде чем записывать сверяй с контактом, этот фильм по эврике уже два года крутят каждый день фул хадэ , трудно найти таракана который его не видел slow
[Профиль] [ЛС]
Показать сообщения:    

Текущее время: Сегодня 10:35

Часовой пояс: GMT



Вы не можете начинать темы
Вы не можете отвечать на сообщения
Вы не можете редактировать свои сообщения
Вы не можете удалять свои сообщения
Вы не можете голосовать в опросах
Вы не можете прикреплять файлы к сообщениям
Вы не можете скачивать файлы