Глазами призрака / A Trap for the Ghost / Kabusun gozuyl? / Piege pour un fantome (Рустам Ибрагимбеков) [2010, Азербайджан, Россия, Франция, мелодрама, DVB-AVC] Sub Rus + Original Rus

 
Автор Сообщение

TorrentFilm ®

Пол:

Стаж: 2 года

Сообщений: 7741



Награды: Нет

Торрент-статистика

Создавать темы 04-Дек-2015 00:09

[Цитировать]

Глазами призрака / A Trap for the Ghost / Kabusun gözüylə / Piège pour un fantôme
Страна: Азербайджан, Россия, Франция
Производство: Азербайджанфильм, Ibrus
Жанр: мелодрама
Год выпуска: 2010
Продолжительность: 00:50:18 + 00:48:36
Перевод: Субтитры (неотключаемые)
Cубтитры: русские
Оригинальная аудиодорожка: русский, французский, азербайджанский
Режиссер: Рустам Ибрагимбеков
Релиз:
В ролях: Ришар Мартен, Мелек Аббасзаде, Тимур Бадалбейли, Фатима Ибрагимбекова, Шукюфа Юсупова, Гюльзар Курбанова
Описание: Действие в фильме происходит после 1990 года в Баку, куда из Франции приезжает группа актеров, желающих таким способом поддержать молодую республику в ее борьбе за независимость от СССР. В составе группы – немолодой уже, 50-летний актер, давно ставший популярным у себя на родине.
Приехав в Баку, француз знакомится с азербайджанской актрисой, которая моложе его на 20 лет. Актер влюбляется в свою новую знакомую, однако, на решительный шаг у заядлого холостяка все никак не хватает сил. Таких, как главный герой картины «Глазами призрака», психиатры и называют «призраками» - людьми, никак не решающими расстаться со своей «свободной» жизнью.

Доп. информация:
Сценарист: Рустам Ибрагимбеков
Оператор: Мурат Алиев
Продюсер: Рустам Ибрагимбеков
Премьера: 16 июня 2010 (Франция), 2 августа 2011 (Азербайджан)
Запись потока *.ts с наземного цифрового телеканала "Беларусь 3", ремукс в *.mkv программой VideoReDo.
Мои раздачи:

Мои раздачи

Все
http://RUtracker.org/forum/tracker.php?rid=9778909
http://BY.torrentfilm.net/forum/tracker.php?rid=9778909
http://UA.torrentfilm.net/forum/tracker.php?rid=9778909
Избранные:
1) Я - гражданин Республики Беларусь. Архитектурные и художественные шедевры Беларуси [2008, RUS]
http://torrentfilm.net/forum/viewtopic.php?t=3516744
2) Государственная политика [Документальный цикл, TVRip, 2010]
http://torrentfilm.net/forum/viewtopic.php?t=3321565
3) Беларусь. Взгляд извне [2005, документальный сериал, TVRip]
http://torrentfilm.net/forum/viewtopic.php?t=3543820
4) Трилогия: Белая Русь, Чарующая Беларусь, Путешествие из Беларуси в Россию [2010-2011 г., Документальный, DVD5]
http://torrentfilm.net/forum/viewtopic.php?t=3442053
5) Правда о западной «демократии» и белорусском «тоталитаризме» [Беларусь 2011, Документальное расследование]
http://torrentfilm.net/forum/viewtopic.php?t=3523672
6) Задорнов в Беларуси. Беларусь - это значительно улучшенный Советский Союз [2010-2011 г., Интервью, TVRip]
http://torrentfilm.net/forum/viewtopic.php?t=3512134
7) [Журнал] Экономика Беларуси (16 номеров) [2007-2010, PDF, RUS]
http://torrentfilm.net/forum/viewtopic.php?t=3309120
8) Армия - Журнал Вооруженных сил республики Беларусь. (81 номер) [1996-2010, PDF, RUS]
http://torrentfilm.net/forum/viewtopic.php?t=3277264
9) Страна Моя, Беларусь! Заставка телеканал СТВ Минск. Белоруссия, Мир, Несвиж и др. zweizwei [2010, рекламный ролик, заставка, HD-Video]
http://torrentfilm.net/forum/viewtopic.php?t=3480687
10) Радзивиллы Несвижские владения Костел Божьего тела [2011 г., хроникально-документальный, TVRip]
http://torrentfilm.net/forum/viewtopic.php?t=3410980
11) Полёты на воздушном шаре. Новогрудок. Беларусь. zweizwei / Belarus Novogrudok [2010, HD-Video]
http://torrentfilm.net/forum/viewtopic.php?t=3380821
12) Полёты на воздушном шаре / Беларусь, Белоруссия, Гродно, Святск. zweizwei [2009, HD-Video]
http://torrentfilm.net/forum/viewtopic.php?t=3380756
13) Вид Гродно с высоты полета (Беларусь)/Выгляд Гродна з вышыні палёту паветранага шара [222]
http://torrentfilm.net/forum/viewtopic.php?t=3369388
14) Анархия Прямое действие. Беларусь [2011, документальный фильм, TVRip]
http://torrentfilm.net/forum/viewtopic.php?t=3485756
15) Психология девиации (АТН, Беларусь ТВ) [2010, Информационно-аналитические и общественно-политическиепередачи, TVRip]
http://torrentfilm.net/forum/viewtopic.php?t=3542424
16) Боль моя - Чернобыль (Беларусь, Коллектив Беларусь ТВ) [2011, Документлный, TVRip]
http://torrentfilm.net/forum/viewtopic.php?t=3546253
17) Попов хутор и его обитатели Русс ТВ [2011, Документальный, DVD5]
http://torrentfilm.net/forum/viewtopic.php?t=3514286
и сотни других...
Сэмпл: http://multi-up.com/1077787
Качество видео: DVB-AVC
Формат видео: MKV
Видео кодек: H.264
Аудио кодек: MP2
Видео: MPEG4 Video (H264) 720x576 (49:36) 25fps, 2 172 Kbps
Аудио: MP2, 256 kbps, 2 channels, 48 kHz
Формат субтитров: hardsub (неотключаемые)
Источник: собственный рип

MediaInfo 1 с

GeneralUnique ID : 28296611317509450790467669129190233676 (0x1549BAA6B2A86729FABB821B66A4D64C)Complete name : D:\Новая земля 2\Художественные фильмы\Глазами призрака (2010)\Глазами призрака (2010)\Глазами призрака_01 (2010).mkvFormat : MatroskaFormat version : Version 2File size : 891 MiBDuration : 50mn 17sOverall bit rate : 2 477 KbpsWriting application : Lavf52.64.2Writing library : Lavf52.64.2
VideoID : 1Format : AVCFormat/Info : Advanced Video CodecFormat profile : Main@L3.0Format settings, CABAC : YesFormat settings, ReFrames : 4 framesFormat settings, GOP : M=4, N=24Codec ID : V_MPEG4/ISO/AVCDuration : 50mn 17sBit rate : 2 172 KbpsWidth : 720 pixelsHeight : 576 pixelsDisplay aspect ratio : 4:3Original display aspect ratio : 4:3Frame rate mode : ConstantFrame rate : 25.000 fpsStandard : PALColor space : YUVChroma subsampling : 4:2:0Bit depth : 8 bitsScan type : MBAFFScan order : Top Field FirstBits/(Pixel*Frame) : 0.209Stream size : 781 MiB (88%)Default : YesForced : NoColor primaries : BT.601 PALTransfer characteristics : BT.470 System B, BT.470 System GMatrix coefficients : BT.601Color range : Limited
AudioID : 2Format : MPEG AudioFormat version : Version 1Format profile : Layer 2Codec ID : A_MPEG/L2Codec ID/Hint : MP2Duration : 50mn 17sBit rate mode : ConstantBit rate : 256 KbpsChannel(s) : 2 channelsSampling rate : 48.0 KHzCompression mode : LossyStream size : 92.1 MiB (10%)Language : EnglishDefault : YesForced : No

MediaInfo 2 с

GeneralUnique ID : 83237424404455026964536162410029629532 (0x3E9EF1DF6C6571AABFE4F85D3F8BC05C)Complete name : D:\Новая земля 2\Художественные фильмы\Глазами призрака (2010)\Глазами призрака (2010)\Глазами призрака_02 (2010).mkvFormat : MatroskaFormat version : Version 2File size : 866 MiBDuration : 48mn 36sOverall bit rate : 2 491 KbpsWriting application : Lavf52.64.2Writing library : Lavf52.64.2
VideoID : 1Format : AVCFormat/Info : Advanced Video CodecFormat profile : Main@L3.0Format settings, CABAC : YesFormat settings, ReFrames : 4 framesFormat settings, GOP : M=4, N=24Codec ID : V_MPEG4/ISO/AVCDuration : 48mn 36sBit rate : 2 185 KbpsWidth : 720 pixelsHeight : 576 pixelsDisplay aspect ratio : 4:3Original display aspect ratio : 4:3Frame rate mode : ConstantFrame rate : 25.000 fpsStandard : PALColor space : YUVChroma subsampling : 4:2:0Bit depth : 8 bitsScan type : MBAFFScan order : Top Field FirstBits/(Pixel*Frame) : 0.211Stream size : 760 MiB (88%)Default : YesForced : NoColor primaries : BT.601 PALTransfer characteristics : BT.470 System B, BT.470 System GMatrix coefficients : BT.601Color range : Limited
AudioID : 2Format : MPEG AudioFormat version : Version 1Format profile : Layer 2Codec ID : A_MPEG/L2Codec ID/Hint : MP2Duration : 48mn 36sBit rate mode : ConstantBit rate : 256 KbpsChannel(s) : 2 channelsSampling rate : 48.0 KHzCompression mode : LossyStream size : 89.0 MiB (10%)Language : EnglishDefault : YesForced : No
[Профиль] [ЛС]

Создавать темы 12-Июн-2016 07:53 (спустя 6 месяцев 8 дней)

Топик был перенесен из форума Фильмы 2011 года в форум Фильмы 2010 года
Russian Mafia
 
Показать сообщения:    

Текущее время: Сегодня 14:30

Часовой пояс: GMT



Вы не можете начинать темы
Вы не можете отвечать на сообщения
Вы не можете редактировать свои сообщения
Вы не можете удалять свои сообщения
Вы не можете голосовать в опросах
Вы не можете прикреплять файлы к сообщениям
Вы не можете скачивать файлы