Гладиатор / Gladiator (2000) BDRip 720p | Extended Cut

 
Автор Сообщение

sergej644 ®

Пол:

Стаж: 4 года 11 месяцев

Сообщений: 6041

Откуда: Soviet Union



Награды: Нет

Торрент-статистика

Создавать темы 24-Дек-2014 20:01

[Цитировать]

Страна: США, Великобритания
Жанр: боевик, драма, приключения
Год выпуска: 2000
Продолжительность: 02:50:56
Перевод: Профессиональный (полное дублирование) + Оригинальный
Субтитры: русские (Форсированные+Extended+3 вида), английские (SDH).-Режиссер: Ридли Скотт / Ridley Scott-В ролях: Рассел Кроу (Maximus), Хоакин Феникс (Commodus), Конни Нильсен (Lucilla), Оливер Рид (Proximo), Ричард Харрис (Marcus Aurelius), Дерек Джекоби (Gracchus), Джимон Хонсу (Juba), Дэвид Скофилд (Falco), Джон Шрэпнел (Gaius), Томас Арана (Quintus), Ральф Мёллер (Hagen), Спенсер Трит Кларк (Lucius)
Дублёры: Олег Куценко (Maximus), Валерий Сторожик (Commodus), Анна Каменкова (Lucilla), Александр Белявский (Proximo), Валентин Смирнитский (Marcus Aurelius), Рудольф Панков (Gracchus), Алексей Мясников (Juba), Алексей Борзунов (Gaius), Владимир Антоник (Quintus), Дальвин Щербаков (Hagen), Андрей Ярославцев (Cassius), Всеволод Кузнецов (Cicero)-Описание: В великой Римской империи не было военачальника, равного генералу Максимусу. Непобедимые легионы, которыми командовал этот благородный воин, боготворили его и могли последовать за ним даже в ад. Но случилось так, что отважный Максимус, готовый сразиться с любым противником в честном бою, оказался бессилен против вероломных придворных интриг. Генерала предали и приговорили к смерти. Чудом избежав гибели, Максимус становится гладиатором. Быстро снискав себе славу в кровавых поединках, он оказывается в знаменитом римском Колизее, на арене которого он встретится в смертельной схватке со своим заклятым врагом...-
MPAA: R - Лицам до 17 лет обязательно присутствие взрослого-Семпл-Качество: BDRip
Контейнер: MKV
Видео: AVC, 1280x544 (2.35:1), 4248 kbps, 23,976 fps, 0,254 bpp
Аудио №1: русский / AC3 / 5.1 / 48 kHz / 448 kbps
Аудио №2: английский / AC3 / 5.1 / 48 kHz / 448 kbps
Навигация по главам: есть-

Media Info

---------------------------------------------------------------------------
x264 [info]: frame I:1848 Avg QP:17.15 size:105067
x264 [info]: frame P:53268 Avg QP:19.08 size: 43489
x264 [info]: frame B:190804 Avg QP:21.69 size: 16076
---------------------------------------------------------------------------
Format : Matroska
Format version : Version 2
File size : 6.27 GiB
Duration : 2h 50mn
Overall bit rate : 5 249 Kbps
Movie name : = Гладиатор / Gladiator | Extended BDRip 720p by SC Kosmos =
Encoded date : UTC 2014-12-24 10:16:53
Writing application : mkvmerge v3.3.0 ('Language') gebaut am Mar 24 2010 14:59:24
Writing library : libebml v0.8.0 + libmatroska v0.9.0
Video
ID : 1
Format : AVC
Format/Info : Advanced Video Codec
Format profile : High@L4.1
Format settings, CABAC : Yes
Format settings, ReFrames : 10 frames
Codec ID : V_MPEG4/ISO/AVC
Duration : 2h 50mn
Bit rate : 4 249 Kbps
Width : 1 280 pixels
Height : 544 pixels
Display aspect ratio : 2.35:1
Frame rate : 23.976 fps
Color space : YUV
Chroma subsampling : 4:2:0
Bit depth : 8 bits
Scan type : Progressive
Bits/(Pixel*Frame) : 0.254
Stream size : 5.07 GiB (81%)
Title : Гладиатор / Gladiator | Extended BDRip 720p by SC Kosmos
Writing library : x264 core 144 r2525 40bb568
Encoding settings : cabac=1 / ref=10 / deblock=1:-3:-3 / analyse=0x3:0x113 / me=umh / subme=11 / psy=1 / psy_rd=1.00:0.05 / mixed_ref=1 / me_range=32 / chroma_me=1 / trellis=2 / 8x8dct=1 / cqm=0 / deadzone=21,11 / fast_pskip=0 / chroma_qp_offset=-3 / threads=12 / lookahead_threads=3 / sliced_threads=0 / nr=0 / decimate=1 / interlaced=0 / bluray_compat=0 / constrained_intra=0 / bframes=10 / b_pyramid=2 / b_adapt=2 / b_bias=0 / direct=3 / weightb=1 / open_gop=0 / weightp=2 / keyint=240 / keyint_min=23 / scenecut=40 / intra_refresh=0 / rc_lookahead=40 / rc=crf / mbtree=0 / crf=19.0 / qcomp=0.60 / qpmin=0 / qpmax=69 / qpstep=4 / vbv_maxrate=62500 / vbv_bufsize=78125 / crf_max=0.0 / nal_hrd=none / filler=0 / ip_ratio=1.40 / pb_ratio=1.30 / aq=1:1.00
Language : English
Default : No
Forced : No
Audio #1
ID : 2
Format : AC-3
Format/Info : Audio Coding 3
Mode extension : CM (complete main)
Codec ID : A_AC3
Duration : 2h 50mn
Bit rate mode : Constant
Bit rate : 448 Kbps
Channel(s) : 6 channels
Channel positions : Front: L C R, Side: L R, LFE
Sampling rate : 48.0 KHz
Bit depth : 16 bits
Compression mode : Lossy
Stream size : 548 MiB (9%)
Title : Дубляж
Language : Russian
Default : Yes
Forced : No
Audio #2
ID : 3
Format : AC-3
Format/Info : Audio Coding 3
Mode extension : CM (complete main)
Codec ID : A_AC3
Duration : 2h 50mn
Bit rate mode : Constant
Bit rate : 448 Kbps
Channel(s) : 6 channels
Channel positions : Front: L C R, Side: L R, LFE
Sampling rate : 48.0 KHz
Bit depth : 16 bits
Compression mode : Lossy
Stream size : 548 MiB (9%)
Language : English
Default : No
Forced : No
Text #1
ID : 4
Format : UTF-8
Codec ID : S_TEXT/UTF8
Codec ID/Info : UTF-8 Plain Text
Title : Форсированные
Language : Russian
Default : Yes
Forced : No
Text #2
ID : 5
Format : UTF-8
Codec ID : S_TEXT/UTF8
Codec ID/Info : UTF-8 Plain Text
Title : Extended
Language : Russian
Default : No
Forced : No
Text #3
ID : 6
Format : UTF-8
Codec ID : S_TEXT/UTF8
Codec ID/Info : UTF-8 Plain Text
Language : Russian
Default : No
Forced : No
Text #4
ID : 7
Format : UTF-8
Codec ID : S_TEXT/UTF8
Codec ID/Info : UTF-8 Plain Text
Language : Russian
Default : No
Forced : No
Text #5
ID : 8
Format : UTF-8
Codec ID : S_TEXT/UTF8
Codec ID/Info : UTF-8 Plain Text
Language : Russian
Default : No
Forced : No
Text #6
ID : 9
Format : UTF-8
Codec ID : S_TEXT/UTF8
Codec ID/Info : UTF-8 Plain Text
Title : SDH
Language : English
Default : No
Forced : No
Menu
00:00:00.000 : en:Far From Home
00:07:14.308 : en:Hell Unleashed
00:12:51.103 : en:You Have Missed the War
00:18:45.791 : en:A Pleasant Fiction
00:23:30.325 : en:One More Duty
00:32:59.394 : en:You Will Not Be Emperor
00:37:35.878 : en:Hail Caesar
00:40:51.740 : en:A Soldier's Death
00:47:33.725 : en:Mark of the Legion
00:51:36.843 : en:Gladiators, I Salute You
00:55:45.383 : en:Battle in Chains
01:02:22.280 : en:The Greatness of Rome
01:09:57.985 : en:Win the Crowd
01:19:09.286 : en:I Shall Cheer for You
01:29:22.648 : en:The Battle of Carthage
01:37:12.785 : en:My Name Is Gladiator
01:41:36.798 : en:Terribly Vexed
01:51:59.837 : en:A Man for the People
01:56:37.281 : en:Maximus the Merciful
02:00:44.487 : en:You Simply Won't Die
02:04:43.225 : en:The Last Wish of a Dying Man
02:12:20.015 : en:I'm an Entertainer
02:13:33.588 : en:Busy Little Be
02:24:16.439 : en:Shadows and Dust
02:28:49.670 : en:Am I Not Merciful?
02:34:21.752 : en:Death Smiles at Us All
02:38:44.556 : en:Home Again
02:42:58.727 : en:Now We Are Free
-

Скриншоты


[Профиль] [ЛС]
Показать сообщения:    

Текущее время: Сегодня 14:53

Часовой пояс: GMT



Вы не можете начинать темы
Вы не можете отвечать на сообщения
Вы не можете редактировать свои сообщения
Вы не можете удалять свои сообщения
Вы не можете голосовать в опросах
Вы не можете прикреплять файлы к сообщениям
Вы не можете скачивать файлы